imdb
rating

6.8
Smashed

Smashed (2012)

Drama

Full description

Smashed 2012 BRrip English Skandale Verified

Size 1.155 GB   0 seeders     Added 2013-03-14 04:20:34

Stream torrent
Starting‥ You need BitLord! Get it from 1BitLord.com
To download or stream you need BitLord. Visit them at BitLord.com
							
Verenigde Staten
Komedie / Drama
91 minuten
geregisseerd door James Ponsoldt
met Mary Elizabeth Winstead, Aaron Paul en Octavia Spencer
Kate en Charlie genieten graag van het leven. Hun huwelijk gedijt op een gedeelde voorliefde voor muziek, humor en... veel drinken. Wanneer Kate's leven van feesten verandert in asociaal gedrag heeft dit invloed op haar baan als lerares op een basisschool.Ze zal moeten veranderen maar dit blijkt niet makkelijk te zijn. Ze zal de confrontatie aan moeten gaan met haar leugens op het werk,haar moeilijke relatie met haar moeder en haar band met Charlie.
A married couple whose bond is built on a mutual love of alcohol gets their relationship put to the test when the wife decides to get sober.http://www.imdb.com/title/tt2063781/
General
Complete name : Smashed 2012.avi
Format : AVI
Format/Info : Audio Video Interleave
File size : 1.08 GiB
Duration : 1h 21mn
Overall bit rate : 1 899 Kbps
Video
ID : 0
Format : MPEG-4 Visual
Format profile : Simple@L3
Format settings, BVOP : No
Format settings, QPel : No
Format settings, GMC : No warppoints
Format settings, Matrix : Default (H.263)
Codec ID : XVID
Codec ID/Hint : XviD
Duration : 1h 21mn
Bit rate : 1 440 Kbps
Width : 624 pixels
Height : 336 pixels
Display aspect ratio : 1.857
Frame rate : 25.000 fps
Color space : YUV
Chroma subsampling : 4:2:0
Bit depth : 8 bits
Scan type : Progressive
Bits/(Pixel*Frame) : 0.275
Stream size : 836 MiB (76%)
Writing library : XviD 1.1.2 (UTC 2006-11-01)
Audio
ID : 1
Format : AC-3
Format/Info : Audio Coding 3
Mode extension : CM (complete main)
Codec ID : 2000
Duration : 1h 21mn
Bit rate mode : Constant
Bit rate : 448 Kbps
Channel(s) : 6 channels
Channel positions : Front: L C R, Side: L R, LFE
Sampling rate : 48.0 KHz
Stream size : 260 MiB (24%)
Alignment : Aligned on interleaves
Interleave, duration : 32 ms (0.80 video frame)
						
Smashed 2012 BRrip English Skandale/Smashed 2012.avi 1.155 GB
Smashed 2012 BRrip English Skandale/Cover/Smashed 2012.jpg 50.961 KB
Smashed 2012 BRrip English Skandale/Cover/flyer.jpg 33.678 KB
Gathering some info...

Register and log in Isohunt and see no captcha anymore!

4000 symbols left
Hash e72a7fc56d0781684a5a68309147eac91c82af48

Related torrents for "Smashed 2012 BRrip English Skandale"

Torrent search:

english 2012 bd