Special Chabbis 2013 DVDRip x264 Hindi ESubs - ViZNU

Size 531.059 MB   0 seeders     Added 2013-03-14 04:39:26

Stream torrent
Starting‚Ä• You need BitLord! Get it from 1BitLord.com
To download or stream you need BitLord. Visit them at BitLord.com
							Special Chabbis 2013 DVDRip x264 Hindi ESubs - ViZNUGenre: Crime | Drama | Thriller
Plot: Based on a real life group of con artists who pulled off many clever robberies during 1980's,
and robbed famous businessmen and politicians by pretending to be the CBI or Income tax officers and
conducting raids. 
Director: Neeraj Pandey
Stars: Akshay Kumar, Manoj Bajpayee, Anupam Kher.
Rated: N/aInfo:http://www.imdb.com/title/tt2377938/Trailer:https://www.youtube.com/watch?v=PiyQb28geOgFormat : MPEG-4
File size : 503 MiB
Duration : 2h 23mn
Overall bit rate : 489 Kbps
Video Format : AVC
Video Bit rate : 446 Kbps
Width : 720 pixels
Height : 304 pixels
Display aspect ratio : 2.35:1
Frame rate mode : Constant
Frame rate : 29.970 fps
Stream size : 458 MiB (91%)
Writing library : x264 core 129 r2245
Audio Format : AAC
Audio Bit rate : 39.6 Kbps
Channel(s) : 2 channels
Channel positions : Front: L R
Sampling rate : 48.0 KHz / 24.0 KHz
Stream size : 40.7 MiB (8%)
Subtitle : Yes(English)
Source : NTSC DVD9Screenshots:
----------------------------------------------------------------------------------------------------Encoded using revolutionary 10bit encoding, which enables us to provide you more crispier and
sharper images at small sizes, just make sure you follow our instructions without a fault.
Recommend to you to use latest version of VLC player. Install K-Lite Codec Pack or shark007 codecs
in case of any kind of problem in playback (For non-VLC Media Player users). Alternatively, install
Core AVC codecs, the fastest decoder that there is coupled with Community Center Codec Pack and play
on Windows Media Player Classic. Check sample to be sure.
Enjoy!
Greets to: Vitamin_X, a2zRG, srkfan, MgB, Stumpie1971, StyLishSaLH and, Masta staff members at ExtraTorrent,
TPB, H33T, KAT, 1337x, PublicHD, Ahashare, BTScene, SilverTorrent, LimeTorrents, TorrentMafia, P2PDL, and all
others.
Encoder Notes: Looking For Early Access To Anything You Can Provide DVDScr, R5, DVDR, BluRay, Direct
Audio, Music Releases and Seedboxes. We require dedicated servers, so as to do more and fast releases of movies.
If You Got anything to offer contact us at "prg@hush.com".
						
Special Chabbis 2013 DVDRip x264 Hindi ESubs - ViZNU/Special Chabbis 2013 DVDRip x264 Hindi ESubs - ViZNU/Special Chabbis 2013 DVDRip x264 Hindi ESubs - ViZNU.mp4 526.949 MB
Special Chabbis 2013 DVDRip x264 Hindi ESubs - ViZNU/Sample.mp4 3.992 MB
Special Chabbis 2013 DVDRip x264 Hindi ESubs - ViZNU/Special Chabbis 2013 DVDRip x264 Hindi ESubs - ViZNU/Special Chabbis 2013 DVDRip x264 Hindi ESubs - ViZNU.srt 112.361 KB
Gathering some info...

Register and log in Isohunt and see no captcha anymore!

4000 symbols left
Hash e35f7f612ef1fe0a13d7b82f29fbcee27ed244e3

Related torrents for "Special Chabbis 2013 DVDRip x264 Hindi ESubs - ViZNU"

Torrent search:

dvdrip x264 hindi 2013