imdb
rating

5.3
In Their Skin

In Their Skin (2012)

Horror, Thriller

Full description
quality   dvdrip web-rip hd bd x264

In Their Skin 2012 DVDRip XViD juggs

Size 743.498 MB   95 seeders     Added 2013-03-14 10:45:47

Stream torrent
Starting‥ You need BitLord! Get it from BitLord.com
To download or stream you need BitLord. Visit them at BitLord.com
Source : IGUANA


Format : AVI
Format/Info : Audio Video Interleave
File size : 700 MiB
Duration : 1h 36mn
Overall bit rate : 1 015 Kbps
Writing library : VirtualDub build 32842/release

Video
ID : 0
Format : MPEG-4 Visual
Format profile : Advanced Simple@L5
Format settings, BVOP : 4
Format settings, QPel : No
Format settings, GMC : No warppoints
Format settings, Matrix : Default (H.263)
Muxing mode : Packed bitstream
Codec ID : XVID
Codec ID/Hint : XviD
Duration : 1h 36mn
Bit rate : 877 Kbps
Width : 640 pixels
Height : 256 pixels
Display aspect ratio : 2.500
Frame rate : 23.976 fps
Color space : YUV
Chroma subsampling : 4:2:0
Bit depth : 8 bits
Scan type : Progressive
Compression mode : Lossy
Bits/(Pixel*Frame) : 0.223
Stream size : 605 MiB (86%)
Writing library : XviD 64

Audio
ID : 1
Format : MPEG Audio
Format version : Version 1
Format profile : Layer 3
Mode : Joint stereo
Mode extension : MS Stereo
Codec ID : 55
Codec ID/Hint : MP3
Duration : 1h 36mn
Bit rate mode : Constant
Bit rate : 128 Kbps
Channel(s) : 2 channels
Sampling rate : 44.1 KHz
Compression mode : Lossy
Stream size : 88.3 MiB (13%)
Alignment : Split accross interleaves
Interleave, duration : 42 ms (1.00 video frame)
Interleave, preload duration : 500 ms
Writing library : LAME3.98

Plot
The Hughes cottage vacation is violently interrupted by a family on a murderous and identity stealing journey, in search of the "perfect" life.

 
image 
image 
image		
In Their Skin 2012 DVDRip XViD juggs/In Their Skin 2012 DVDRip XViD juggs.avi 734.282 MB
In Their Skin 2012 DVDRip XViD juggs/Torrent Downloaded From ExtraTorrent.com.txt 339 B
In Their Skin 2012 DVDRip XViD juggs/sample.avi 9.216 MB
Gathering some info...

Register and log in Isohunt and see no captcha anymore!

4000 symbols left
Hash 9af74778029701370c860722c99f93978f08cb55

Related torrents for "In Their Skin 2012 DVDRip XViD juggs"

Torrent search:

dvdrip 2012