imdb
rating

6.2
Beautiful Creatures

Beautiful Creatures (2013)

Drama, Fantasy, Romance

Full description

[ www.Speed.Cd ] - Beautiful Creatures 2013 TS XviD Feel-Free

Size 1.242 GB   0 seeders     Added 2013-03-14 11:31:34

Stream torrent
Starting‥ You need BitLord! Get it from BitLord.com
To download or stream you need BitLord. Visit them at BitLord.com
- 
http://www.Speed.Cd
 
http://www.Speed.Cd       the fast  and The Hottest Private Tracker on the net

Please Seed back to make the speed Faster!!
 ............ NFO .............
-[img]image[/img]
[img]image[/img]


Language:English
IMDb:http://www.imdb.com/title/tt1559547/
Source: russia/MiNiSTRY Thanks
Encoder:Tony


Format                                   : AVI
Format/Info                              : Audio Video Interleave
File size                                : 1.16 GiB
Duration                                 : 1h 57mn
Overall bit rate                         : 1 413 Kbps
Writing application                      : VirtualDubMod 1.5.10.2 (build 2540/release)
Writing library                          : VirtualDubMod build 2540/release

Video
ID                                       : 0
Format                                   : MPEG-4 Visual
Format profile                           : Advanced Simple@L5
Format settings, BVOP                    : 1
Format settings, QPel                    : No
Format settings, GMC                     : No warppoints
Format settings, Matrix                  : Default (H.263)
Codec ID                                 : XVID
Codec ID/Hint                            : XviD
Duration                                 : 1h 57mn
Bit rate                                 : 1 243 Kbps
Width                                    : 640 pixels
Height                                   : 272 pixels
Display aspect ratio                     : 2.35:1
Frame rate                               : 25.000 fps
Color space                              : YUV
Chroma subsampling                       : 4:2:0
Bit depth                                : 8 bits
Scan type                                : Progressive
Compression mode                         : Lossy
Bits/(Pixel*Frame)                       : 0.286
Stream size                              : 1.02 GiB (88%)
Writing library                          : XviD 1.2.1 (UTC 2008-12-04)

Audio
ID                                       : 1
Format                                   : AC-3
Format/Info                              : Audio Coding 3
Mode extension                           : CM (complete main)
Codec ID                                 : 2000
Duration                                 : 1h 57mn
Bit rate mode                            : Constant
Bit rate                                 : 160 Kbps
Channel(s)                               : 2 channels
Channel positions                        : Front: L R
Sampling rate                            : 48.0 KHz
Bit depth                                : 16 bits
Compression mode                         : Lossy
Stream size                              : 134 MiB (11%)
Alignment                                : Aligned on interleaves
Interleave, duration                     : 40 ms (1.00 video frame)
Interleave, preload duration             : 512 ms		
[ www.Speed.Cd ] - Beautiful Creatures 2013 TS XviD Feel-Free/Beautiful Creatures 2013 TS XviD Feel-Free.avi 1.242 GB
[ www.Speed.Cd ] - Beautiful Creatures 2013 TS XviD Feel-Free/Beautiful Creatures 2013 TS XviD Feel-Free.nfo 2.888 KB
[ www.Speed.Cd ] - Beautiful Creatures 2013 TS XviD Feel-Free/vlcsnap-2012-12-26-17h07m45s39.png 151.665 KB
Gathering some info...

Register and log in Isohunt and see no captcha anymore!

4000 symbols left
Hash 5ac765671cf23695b3f61d39bc6a3ef46596f7c5

Related torrents for "[ www.Speed.Cd ] - Beautiful Creatures 2013 TS XviD Feel-Free"

Torrent search:

telesync 2013