A Venezia Un Dicembre Rosso Shocking (1973).avi

Size 730.665 MB   37 seeders     Added 2013-03-14 13:58:40

Stream torrent
Starting‥ You need BitLord! Get it from BitLord.com
To download or stream you need BitLord. Visit them at BitLord.com
							A Venezia Un Dicembre Rosso Shocking (1973) [DivX - Italian Mp3] MIRCrew [TNT Village]
********************************************* 
A Venezia Un Dicembre Rosso Shocking (1973)
Titolo originale 	Don't Look Now
Paese di produzione 	Gran Bretagna, Italia
Anno 	1973
Durata 	110 min
Genere 	horror / drammatico
Regia 	Nicolas Roeg
Soggetto 	Daphne Du Maurier
Sceneggiatura 	Allan Scott e Chris Bryant
Fotografia 	Anthony B. Richmond e Nicolas Roeg
Montaggio 	Graeme Clifford
Musiche 	Pino Donaggio (la canzone Colori di dicembre è interpretata da Iva Zanicchi)
Scenografia 	Giovanni Soccol
Premi
 Premi BAFTA 1973: migliore fotografia (Anthony B. Richmond)
 Julie Christie: Laura Baxter
 Donald Sutherland: John Baxter
 Hilary Mason: Heather
 Clelia Matania: Wendy
 Massimo Serato: vescovo Barbarrigo
 Renato Scarpa: commissario Longhi
 Giorgio Trestini: operaio
 Leopoldo Trieste: Alessandro
 David Tree: Anthony Babbage
 Ann Rye: Mandy
 Nicholas Salter: Johnny Baxter
 Sharon Williams: Christine Baxter
 Sergio Serafini: operaio
 Bruno Cattaneo: investigatore Sabion
 Adelina Poerio: la nana
Il film, girato quasi interamente a Venezia ad esclusione della sequenza iniziale, narra di due coniugi inglesi, John e Laura Baxter, che si recano nella città lagunare per lavoro. Ciò 
pochi mesi dopo la tragica morte della figlia minore Christine, annegata nello stagno della loro villa. L'evento tragico era stato misteriosamente previsto dal padre, pochi attimi prima che 
accadesse...
Impegnato nella conduzione di alcuni lavori di restauro nella chiesa veneziana di San Niccolò, John deve occuparsi della salute della moglie, caduta in depressione a causa della recente 
scomparsa della figlia. Durante un pranzo in un locale pubblico Laura conosce due sorelle scozzesi, Heather e Wendy, la prima delle quali è priva della vista, ma dotata di poteri medianici 
che le consentono di comunicare a Laura un evento straordinario: la medium ha appena "visto" accanto a Laura e a John una piccola bambina bionda sorridente. Si tratta della la piccola 
Christine, recentemente annegata......
General
Complete name : A Venezia Un Dicembre Rosso Shocking (1973).avi
Format : AVI
Format/Info : Audio Video Interleave
File size : 697 MiB
Duration : 1h 45mn
Overall bit rate : 928 Kbps
Writing library : VirtualDub build 15654/release
Video
ID : 0
Format : MPEG-4 Visual
Format settings, BVOP : Yes
Format settings, QPel : No
Format settings, GMC : 2 warppoints
Format settings, Matrix : Default (H.263)
Muxing mode : Packed bitstream
Codec ID : DX50
Codec ID/Hint : DivX 5
Duration : 1h 45mn
Bit rate : 790 Kbps
Width : 608 pixels
Height : 320 pixels
Display aspect ratio : 1.900
Frame rate : 25.000 fps
Color space : YUV
Chroma subsampling : 4:2:0
Bit depth : 8 bits
Scan type : Progressive
Bits/(Pixel*Frame) : 0.162
Stream size : 594 MiB (85%)
Writing library : DivX 5.0.2 (UTC 2002-05-16)
Audio
ID : 1
Format : MPEG Audio
Format version : Version 1
Format profile : Layer 3
Mode : Joint stereo
Mode extension : MS Stereo
Codec ID : 55
Codec ID/Hint : MP3
Duration : 1h 45mn
Bit rate mode : Constant
Bit rate : 128 Kbps
Channel(s) : 2 channels
Sampling rate : 44.1 KHz
Video delay : 9s 0ms
Stream size : 95.9 MiB (14%)
Alignment : Split accross interleaves
Interleave, duration : 40 ms (1.00 video frame)
Interleave, preload duration : 499 ms
						
A Venezia Un Dicembre Rosso Shocking (1973).avi 730.665 MB
Gathering some info...

Register and log in Isohunt and see no captcha anymore!

4000 symbols left
Hash 9291c217b89a252fb63af89f1ba73a211cda091e

Related torrents for "A Venezia Un Dicembre Rosso Shocking (1973).avi"

Torrent search:

1973