imdb
rating

7.0
Girl with Green Eyes

Girl with Green Eyes (1964)

Drama, Romance, Foreign

Full description
quality   hd web-rip

Girl with Green Eyes (Desmond Davies, 1964)

Size 1.186 GB   0 seeders     Added 2013-03-14 17:02:08

Stream torrent
Starting‥ You need BitLord! Get it from BitLord.com
To download or stream you need BitLord. Visit them at BitLord.com
Described as a mixture of innocence and guile, Catholic Irish farm girl Kate Brady, along with her gregarious best friend Baba Brennan, moves to Dublin to pursue a more exciting life. There, the two meet worldly writer and translator Eugene Gaillard. Although both are interested in him, it is Kate who quietly pursues him. Eugene, who knows her intention, initially resists starting up with her in part because of the difference in their ages, he being twice as old as she. Learning that he is married, albeit in a failed marriage that will soon end in divorce, does not lessen her resolve to be with him. They eventually do begin a romantic relationship. Can the relationship survive their fundamental differences especially as she becomes increasingly dependent on him emotionally, or can it survive the scrutiny of her strict Catholic family and his and his wife's acerbic tongued friends. (From IMDb)


Director:
Desmond Davis

Writers:
Edna O'Brien (novel), Edna O'Brien (screenplay)

Stars:
Peter Finch, Rita Tushingham, Lynn Redgrave

Format                                   : AVI
Format/Info                              : Audio Video Interleave
File size                                : 1.09 GiB
Duration                                 : 1h 32mn
Overall bit rate                         : 1 692 Kbps
Writing application                      : VirtualDubMod 1.5.4.1 (build 2178/release)
Writing library                          : VirtualDubMod build 2178/release

Video
ID                                       : 0
Format                                   : MPEG-4 Visual
Format profile                           : Advanced Simple@L5
Format settings, BVOP                    : 1
Format settings, QPel                    : No
Format settings, GMC                     : No warppoints
Format settings, Matrix                  : Custom
Codec ID                                 : XVID
Codec ID/Hint                            : XviD
Duration                                 : 1h 32mn
Bit rate                                 : 1 493 Kbps
Width                                    : 640 pixels
Height                                   : 384 pixels
Display aspect ratio                     : 1.667
Frame rate                               : 23.976 fps
Color space                              : YUV
Chroma subsampling                       : 4:2:0
Bit depth                                : 8 bits
Scan type                                : Progressive
Compression mode                         : Lossy
Bits/(Pixel*Frame)                       : 0.253
Stream size                              : 988 MiB (88%)
Writing library                          : XviD 1.2.0.dev47 (UTC 2006-11-01)

Audio
ID                                       : 1
Format                                   : AC-3
Format/Info                              : Audio Coding 3
Mode extension                           : CM (complete main)
Format settings, Endianness              : Big
Codec ID                                 : 2000
Duration                                 : 1h 32mn
Bit rate mode                            : Constant
Bit rate                                 : 192 Kbps
Channel(s)                               : 2 channels
Channel positions                        : Front: L R
Sampling rate                            : 48.0 KHz
Bit depth                                : 16 bits
Compression mode                         : Lossy
Stream size                              : 127 MiB (11%)
Alignment                                : Split accross interleaves
Interleave, duration                     : 96 ms (2.30 video frames)
Interleave, preload duration             : 96 ms
Language                                 : English

Upped in KG by tiberio. Tks!
		
Girl with Green Eyes (Desmond Davies, 1964)/Girl with Green Eyes.avi 1.174 GB
Girl with Green Eyes (Desmond Davies, 1964)/Girl with Green Eyes.sub 12.128 MB
Girl with Green Eyes (Desmond Davies, 1964)/Girl with Green Eyes.idx 154.126 KB
Gathering some info...

Register and log in Isohunt and see no captcha anymore!

4000 symbols left
Hash 106169cf88e40cb6082ba1928e1043b5a738df60

Related torrents for "Girl with Green Eyes (Desmond Davies, 1964)"

Torrent search:

1964