imdb
rating

8.7
Vishwaroopam

Vishwaroopam (2013)

Action, Crime, Thriller

Full description
quality   hd screener x264 dvdrip

Vishwaroopam (2013) (Tamil) DvdRip XviD 5.1CH 2CD [Team Jaffa].avi

Size 1.554 GB   0 seeders     Added 2013-03-15 04:57:38

Stream torrent
Starting‥ You need BitLord! Get it from 1BitLord.com
To download or stream you need BitLord. Visit them at BitLord.com
							Quote:
General
Format : AVI
Format/Info : Audio Video Interleave
File size : 1.45 GiB
Duration : 2h 16mn
Overall bit rate : 1 514 Kbps
Video
ID : 0
Format : MPEG-4 Visual
Format profile : Advanced Simple@L5
Format settings, BVOP : 2
Format settings, QPel : No
Format settings, GMC : No warppoints
Format settings, Matrix : Default (H.263)
Codec ID : XVID
Codec ID/Hint : XviD
Duration : 2h 16mn
Bit rate : 1 281 Kbps
Width : 720 pixels
Height : 304 pixels
Display aspect ratio : 2.35:1
Frame rate : 29.970 fps
Color space : YUV
Chroma subsampling : 4:2:0
Bit depth : 8 bits
Scan type : Progressive
Compression mode : Lossy
Bits/(Pixel*Frame) : 0.195
Stream size : 1.22 GiB (85%)
Writing library : XviD 1.2.1 (UTC 2008-12-04)
Audio
ID : 1
Format : AC-3
Format/Info : Audio Coding 3
Mode extension : CM (complete main)
Format settings, Endianness : Big
Codec ID : 2000
Duration : 2h 16mn
Bit rate mode : Constant
Bit rate : 224 Kbps
Channel(s) : 6 channels
Channel positions : Front: L C R, Side: L R, LFE
Sampling rate : 48.0 KHz
Bit depth : 16 bits
Compression mode : Lossy
Stream size : 219 MiB (15%)
Alignment : Aligned on interleaves
Interleave, duration : 64 ms (1.92 video frames)
Interleave, preload duration : 192 ms
Title : audio
Vishwaroopam (2013) (Tamil) DvdRip XviD 5.1CH 2CD [Team Jaffa].avi 1.554 GB
Gathering some info...

Register and log in Isohunt and see no captcha anymore!

4000 symbols left
Hash 9c41465dfeff3001f0c9ea7a68072a23bd6319ac

Related torrents for "Vishwaroopam (2013) (Tamil) DvdRip XviD 5.1CH 2CD [Team Jaffa].avi"

Torrent search:

dvdrip 2013