imdb
rating

8.1
Terror in Mumbai

Terror in Mumbai (2009)

Documentary

Full description
quality   hdtv x264 hd

Terror.in.Mumbai.HDTVRip.x264.720p.AC3.RRG.DADA.DBBIANS.Com.mkv

Size 1.717 GB   0 seeders     Added 2013-03-15 09:17:26

Stream torrent
Starting‥ You need BitLord! Get it from BitLord.com
To download or stream you need BitLord. Visit them at BitLord.com
Terror in Mumbai Documentary HDTVRip x264 720p AC3 [RRG DBB][DADA]
 
Cover - 
  
    	image

Screens -



    	image
    	image
    	image
    	image
    	image
    	image
    	image
    	image

INFO -  

General

Format                           : Matroska
File size                        : 1.60 GiB
Duration                         : 1h 4mn
Overall bit rate                 : 3 530 Kbps
Encoded date                     : UTC 2013-03-15 05:53:20
Writing library                  : libebml v1.2.3 + libmatroska v1.3.0

Video
ID                               : 1
Format                           : AVC
Format/Info                      : Advanced Video Codec
Format profile                   : High@L4.1
Format settings, CABAC           : Yes
Format settings, ReFrames        : 8 frames
Muxing mode                      : Container profile=Unknown@4.1
Codec ID                         : V_MPEG4/ISO/AVC
Duration                         : 1h 4mn
Bit rate                         : 3 080 Kbps
Width                            : 1 280 pixels
Height                           : 704 pixels
Display aspect ratio             : 16:9
Frame rate                       : 25.000 fps
Color space                      : YUV
Chroma subsampling               : 4:2:0
Bit depth                        : 8 bits
Scan type                        : Progressive
Bits/(Pixel*Frame)               : 0.137
Stream size                      : 1.36 GiB (85%)
Title                            : PuLi - Terror In Mumbai - 720p - DDR
Writing library                  : x264 core 125 r2200 999b753

Audio
ID                               : 2
Format                           : AC-3
Format/Info                      : Audio Coding 3
Mode extension                   : CM (complete main)
Codec ID                         : A_AC3
Duration                         : 1h 4mn
Bit rate mode                    : Constant
Bit rate                         : 448 Kbps
Channel(s)                       : 6 channels
Channel positions                : Front: L C R, Side: L R, LFE
Sampling rate                    : 48.0 KHz
Bit depth                        : 16 bits
Stream size                      : 208 MiB (13%)
Title                            : PuLi - AC3 5.1 - DDR
Language                         : English
		
Terror.in.Mumbai.HDTVRip.x264.720p.AC3.RRG.DADA.DBBIANS.Com.mkv 1.717 GB
Gathering some info...

Register and log in Isohunt and see no captcha anymore!

4000 symbols left
Hash 28159deec6b1875d891a62d161938c59c5a6f9f2

Related torrents for "Terror.in.Mumbai.HDTVRip.x264.720p.AC3.RRG.DADA.DBBIANS.Com.mkv"

Torrent search:

x264 hdtv hd