imdb
rating

3.9
Cinderella 3D

Cinderella 3D (2012)

Animation, Family

Full description
quality   dvdr bd x264 hd fullhd

cinderella.2012.BRRip XViD juggs

Size 740.15 MB   99 seeders     Added 2013-03-15 10:19:14

Stream torrent
Starting‥ You need BitLord! Get it from BitLord.com
To download or stream you need BitLord. Visit them at BitLord.com
							
ormat : AVI
Format/Info : Audio Video Interleave
File size : 699 MiB
Duration : 1h 21mn
Overall bit rate : 1 203 Kbps
Writing library : VirtualDub build 32842/release
Video
ID : 0
Format : MPEG-4 Visual
Format profile : Advanced Simple@L5
Format settings, BVOP : 2
Format settings, QPel : No
Format settings, GMC : No warppoints
Format settings, Matrix : Default (H.263)
Muxing mode : Packed bitstream
Codec ID : XVID
Codec ID/Hint : XviD
Duration : 1h 21mn
Bit rate : 1 065 Kbps
Width : 640 pixels
Height : 352 pixels
Display aspect ratio : 16:9
Frame rate : 23.976 fps
Color space : YUV
Chroma subsampling : 4:2:0
Bit depth : 8 bits
Scan type : Progressive
Compression mode : Lossy
Bits/(Pixel*Frame) : 0.197
Stream size : 619 MiB (89%)
Writing library : XviD 64
Audio
ID : 1
Format : MPEG Audio
Format version : Version 1
Format profile : Layer 3
Codec ID : 55
Codec ID/Hint : MP3
Duration : 1h 21mn
Bit rate mode : Constant
Bit rate : 128 Kbps
Channel(s) : 2 channels
Sampling rate : 44.1 KHz
Compression mode : Lossy
Stream size : 74.4 MiB (11%)
Alignment : Split accross interleaves
Interleave, duration : 42 ms (1.00 video frame)
Interleave, preload duration : 500 ms
Writing library : LAME3.99r
Encoding settings : -m s -V 4 -q 3 -lowpass 17 -b 128
Plot
This modern take on Cinderella is set to the backdrop of the Wild West featuring a new cast of furry and feathered friends.
cinderella.2012.BRRip XViD juggs/Torrent Downloaded From ExtraTorrent.com.txt 339 B
cinderella.2012.BRRip XViD juggs/cinderella.2012.BRRip XViD juggs.avi 733.363 MB
cinderella.2012.BRRip XViD juggs/sample.avi 6.787 MB
Gathering some info...

Register and log in Isohunt and see no captcha anymore!

4000 symbols left
Hash eaa7154e80fa78dc15df73a8d040711f491cc0e3

Related torrents for "cinderella.2012.BRRip XViD juggs"

Torrent search:

2012 bd