Black Eagle 2012 DVDRip XViD juggs Verified

Size 742.057 MB   1 seeders     Added 2013-03-15 10:30:44

Stream torrent
Starting‚Ä• You need BitLord! Get it from BitLord.com
To download or stream you need BitLord. Visit them at BitLord.com
Format : AVI
Format/Info : Audio Video Interleave
File size : 701 MiB
Duration : 1h 55mn
Overall bit rate : 852 Kbps
Writing library : VirtualDub build 32842/release

Video
ID : 0
Format : MPEG-4 Visual
Format profile : Advanced Simple@L5
Format settings, BVOP : 4
Format settings, QPel : No
Format settings, GMC : No warppoints
Format settings, Matrix : Default (H.263)
Muxing mode : Packed bitstream
Codec ID : XVID
Codec ID/Hint : XviD
Duration : 1h 55mn
Bit rate : 714 Kbps
Width : 640 pixels
Height : 272 pixels
Display aspect ratio : 2.35:1
Frame rate : 23.976 fps
Color space : YUV
Chroma subsampling : 4:2:0
Bit depth : 8 bits
Scan type : Progressive
Compression mode : Lossy
Bits/(Pixel*Frame) : 0.171
Stream size : 588 MiB (84%)
Writing library : XviD 64

Audio
ID : 1
Format : MPEG Audio
Format version : Version 1
Format profile : Layer 3
Codec ID : 55
Codec ID/Hint : MP3
Duration : 1h 55mn
Bit rate mode : Constant
Bit rate : 128 Kbps
Channel(s) : 2 channels
Sampling rate : 44.1 KHz
Compression mode : Lossy
Stream size : 105 MiB (15%)
Alignment : Split accross interleaves
Interleave, duration : 42 ms (1.00 video frame)
Interleave, preload duration : 500 ms
Writing library : LAME3.99r
Encoding settings : -m s -V 4 -q 3 -lowpass 17 -b 128

Plot
After he performs a dangerous dare-devil stunt at an air show, South Korean Air Force pilot Tae-hun is kicked out of the elite Black Eagles flying team and transferred to a combat unit

 
image 
image 
image		
Black Eagle 2012 DVDRip XViD juggs/Black Eagle 2012 DVDRip XViD juggs.avi 734.852 MB
Black Eagle 2012 DVDRip XViD juggs/Torrent Downloaded From ExtraTorrent.com.txt 339 B
Black Eagle 2012 DVDRip XViD juggs/sample.avi 7.205 MB
Gathering some info...

Register and log in Isohunt and see no captcha anymore!

4000 symbols left
Hash 6897bee6307405d019cffc3f4d08dfbaf61446b3

Related torrents for "Black Eagle 2012 DVDRip XViD juggs"

Torrent search:

dvdrip 2012 black