imdb
rating

7.6
The Legend of Drunken Master

The Legend of Drunken Master (1994)

Action, Comedy

Full description
quality   h264 hd bd dvdrip hdtv x264

The Legend of Drunken Master (Jui kuen II ) (1994)-alE13

Size 4.168 GB   0 seeders     Added 2013-03-16 02:21:36

Stream torrent
Starting‥ You need BitLord! Get it from BitLord.com
To download or stream you need BitLord. Visit them at BitLord.com
							The file containing - sample!!!
Plik zawiera - sample !!!
gatunek: Komedia, Karate
produkcja: Hongkong
premiera: 3 lutego 1994 (świat)
reżyseria: Chia-Liang Liu, Jackie Chan
scenariusz: Edward Tang Man-Ming Tong,Kai-Chi Yun
muzyka: Michael Wandmacher , Wai Lap Wu
zdjęcia: Yiu-Tsou Cheung , Jingle Ma
czas: 01:42:32
Opis filmu:
A young martial artist is caught between respecting his pacifist father's wishes 
or stopping a group of disrespectful foreigners from stealing precious artifacts.
Wariacja na temat losów Wong Fei-hunga, syna cenionego mistrza kung-fu i samozwańczego 
czempiona techniki pijanego boksu.Grany przez Jackie Chana bohater próbuje oszczędzić 
na opłatach celnych, ukrywając paczuszkę z leczniczym korzeniem ginseng w bagażach 
brytyjskiego administratora. Podczas późniejszej próby odzyskania jej naturalnie myli pakunki. 
Rozpoczyna to ciąg tarapatów, które są jedynie pretekstem do pokazania widzowi 
spektakularnych pojedynków, na czele ze wspomnianym drunken boxingiem.
Obsada:
Felix Wong.... Tsang
Jackie Chan... Wong Fei-hung
Lung Ti Wong... Kei-ying, ojciec Wong Fei-hunga
Anita Mui.......Mrs. Wong, macocha Wong Fei-hunga
Dane Techniczne:
The Legend of Drunken Master (Jui kuen II ) (1994)-alE13 .mkv
Format : Matroska
Format version : Version 4 / Version 2
File size : 3.37 GiB
Duration : 1h 42mn
Overall bit rate : 4 712 Kbps
Movie name : The Legend of Drunken Master (Jui kuen II ) (1994)-alE13
Encoded date : UTC 2013-03-16 05:25:31
Writing application : mkvmerge v6.1.0
Writing library : libebml v1.3.0 + libmatroska v1.4.0
Attachment : Yes
Video
ID : 1
Format : AVC
Format/Info : Advanced Video Codec
Format profile : High@L3.1
Format settings, CABAC : Yes
Format settings, ReFrames : 2 frames
Codec ID : V_MPEG4/ISO/AVC
Duration : 1h 42mn
Bit rate : 3 200 Kbps
Width : 1 280 pixels
Height : 548 pixels
Display aspect ratio : 2.35:1
Frame rate mode : Constant
Frame rate : 23.976 fps
Color space : YUV
Chroma subsampling : 4:2:0
Bit depth : 8 bits
Scan type : Progressive
Bits/(Pixel*Frame) : 0.190
Stream size : 2.23 GiB (66%)
Writing library : x264 core 112 r1834 a51816a
Audio
ID : 2
Format : DTS
Format/Info : Digital Theater Systems
Mode : 16
Format settings, Endianness : Big
Codec ID : A_DTS
Duration : 1h 42mn
Bit rate mode : Constant
Bit rate : 1 509 Kbps
Channel(s) : 6 channels
Channel positions : Front: L C R, Side: L R, LFE
Sampling rate : 48.0 KHz
Bit depth : 24 bits
Compression mode : Lossy
Stream size : 1.08 GiB (32%)
Title : dts 6ch 1509 kbps-alE13_AT-TEAM
Language : English
Text #1
ID : 3
Format : UTF-8
Codec ID : S_TEXT/UTF8
Codec ID/Info : UTF-8 Plain Text
Title : (Jui kuen II ) (1994)-alE13_AT-TEAM
Language : Czech
Text #2
ID : 4
Format : UTF-8
Codec ID : S_TEXT/UTF8
Codec ID/Info : UTF-8 Plain Text
Title : (Jui kuen II ) (1994)-alE13_AT-TEAM
Language : French
Text #3
ID : 5
Format : UTF-8
Codec ID : S_TEXT/UTF8
Codec ID/Info : UTF-8 Plain Text
Title : (Jui kuen II ) (1994)-alE13_AT-TEAM
Language : English
Text #4
ID : 6
Format : UTF-8
Codec ID : S_TEXT/UTF8
Codec ID/Info : UTF-8 Plain Text
Title : (Jui kuen II ) (1994)-alE13_AT-TEAM
Language : Polish
Text #5
ID : 7
Format : UTF-8
Codec ID : S_TEXT/UTF8
Codec ID/Info : UTF-8 Plain Text
Title : (Jui kuen II ) (1994)-alE13_AT-TEAM
Language : Portuguese
Text #6
ID : 8
Format : UTF-8
Codec ID : S_TEXT/UTF8
Codec ID/Info : UTF-8 Plain Text
Title : (Jui kuen II ) (1994)-alE13_AT-TEAM
Language : Russian
Text #7
ID : 9
Format : UTF-8
Codec ID : S_TEXT/UTF8
Codec ID/Info : UTF-8 Plain Text
Title : (Jui kuen II ) (1994)-alE13_AT-TEAM
Language : Spanish
Text #8
ID : 10
Format : UTF-8
Codec ID : S_TEXT/UTF8
Codec ID/Info : UTF-8 Plain Text
Title : (Jui kuen II ) (1994)-alE13_AT-TEAM
Language : Turkish
Menu
00:00:00.000 : en:Opening Credits / Paying Dues
00:05:54.271 : en:Gone Wild!
00:14:38.795 : en:Man of Intelligence
00:17:31.300 : en:Dirty Ginseng
00:25:21.228 : en:Overtime Hours, Overtime Pay!
00:28:59.279 : en:Drunken Boxing
00:33:53.865 : en:Chinese Mafia in Bad English Suits
00:46:09.892 : en:"You're Not My Son"
00:54:18.839 : en:Drunk and Alone, with No Home
00:58:44.563 : en:Father Forgive Me
01:01:06.913 : en:Eureka!
01:11:13.144 : en:"Seal of Approval"
01:17:15.673 : en:Shady Antiques
01:20:10.848 : en:Man in Battle
01:38:52.718 : en:Proud Family
01:39:40.391 : en:End Credits
						
The Legend of Drunken Master (Jui kuen II ) (1994)-alE13/1.jpg 36.305 KB
The Legend of Drunken Master (Jui kuen II ) (1994)-alE13/2.jpg 54.928 KB
The Legend of Drunken Master (Jui kuen II ) (1994)-alE13/alE132013-03-16-06h52m11s246.jpg 28.803 KB
Gathering some info...

Register and log in Isohunt and see no captcha anymore!

4000 symbols left
Hash 21d3c72c7560bb01bdb9ffba96605a09cb2e3454

Related torrents for "The Legend of Drunken Master (Jui kuen II ) (1994)-alE13"

Torrent search:

1994