imdb
rating

5.1
The Moment

The Moment (2013)

Thriller

Full description
quality   hdtv dvdrip x264 fullhd hd bd

Pitbull - Feel This Moment (Ft. Christina Aguilera) M4A+MP4 (1080p) x264 [VX] [P2PDL]

Size 54.969 MB   9 seeders     Added 2013-03-16 05:15:49

Stream torrent
Starting‥ You need BitLord! Get it from BitLord.com
10
To download or stream you need BitLord. Visit them at BitLord.com
_________________________  Visit us at _________________________
  
http://p2pdl.com  ____________________________  http://p2pdl.com


Pitbull - Feel This Moment (Ft. Christina Aguilera) M4A+MP4 (1080p) x264 [VX]

                             1080p Full HD MP4 Video
                                      +
                             128 Kbps/VBR M4A Audio

General
Complete name                  : Pitbull - Feel This Moment (Ft. Christina Aguilera) (1080p) x264 [VX].mp4
Format                         : MPEG-4
Format profile                 : Base Media / Version 2
Codec ID                       : mp42
File size                      : 47.5 MiB
Duration                       : 3mn 56s
Overall bit rate mode          : Variable
Overall bit rate               : 1 686 Kbps

Video
ID                             : 1
Format                         : AVC
Format/Info                    : Advanced Video Codec
Format profile                 : High@L4.0
Width                          : 1 920 pixels
Height                         : 1 080 pixels
Display aspect ratio           : 16:9
Frame rate mode                : Variable
Frame rate                     : 23.976 fps
Color space                    : YUV
Chroma subsampling             : 4:2:0
Bit depth                      : 8 bits
Scan type                      : Progressive
Bits/(Pixel*Frame)             : 0.031
Stream size                    : 43.8 MiB (92%)
Writing library                : x264 core 129

Audio
Format                         : AAC
Duration                       : 3mn 56s
Bit rate mode                  : Variable
Bit rate                       : 125 Kbps
Channel(s)                     : 2 channels
Channel positions              : Front: L R
Sampling rate                  : 48.0 KHz
Stream size                    : 3.52 MiB (7%)


Subtitles                      : No

Screens:
 
image
------------------------------------------------------------------------

Notes:

* Recommended to use latest version VLC Media Player.
* Install shark007 codecs in case of any kind of problem in playback (For non-VLC Media Player users).
* Alternatively, install Core AVC codecs, the fastest decoder that there is coupled with Community Center Codec Pack and play on Windows Media Player Classic.

Greets to: VYTO, a2zRG, MusiK_KinG, Kuroyukihime, Caveman, Ash968, Neon, TwentyForty, Masta, TorDigger and staff members at ExtraTorrent, TPB, H33T, KAT, 1337x, PublicHD, Ahashare, TorrentMafia, Limetorrents, BTScene, P2PDL, and all others

Encoder Notes: Looking For Early Access To Anything You Can Provide DVDScr, R5, DVDRips, BluRay, Direct Audio, Early Music
Releases, Seedboxes, Links, Dedicated Servers anything u can provide, Advance / Promo CDs/DVDs. If You Got anything to
offer contact me at "prg@hush.com".		
Pitbull - Feel This Moment (Ft. Christina Aguilera) M4A+MP4 (1080p) x264 [VX] [P2PDL]/01 Pitbull - Feel This Moment (feat. Christina Aguilera).m4a 5.104 MB
Pitbull - Feel This Moment (Ft. Christina Aguilera) M4A+MP4 (1080p) x264 [VX] [P2PDL]/Cover.jpg 89.087 KB
Pitbull - Feel This Moment (Ft. Christina Aguilera) M4A+MP4 (1080p) x264 [VX] [P2PDL]/Pitbull - Feel This Moment (Ft. Christina Aguilera) (1080p) x264 [VX].mp4 49.765 MB
Gathering some info...

Register and log in Isohunt and see no captcha anymore!

4000 symbols left
Hash faebfec323517598ada315bc7202356ec5c62a05

Related torrents for "Pitbull - Feel This Moment (Ft. Christina Aguilera) M4A+MP4 (1080p) x264 [VX] [P2PDL]"

Torrent search:

x264 fullhd