Janbaaz.1986.DvDrip.1CD.X264.AAC.RRG.DADA.DBBIANS.Com.mp4

Size 1.25 GB   5 seeders     Added 2013-03-16 07:30:40

Stream torrent
Starting‚Ä• You need BitLord! Get it from BitLord.com
10
To download or stream you need BitLord. Visit them at BitLord.com
Janbaaz 1986 DvDrip 1CD X264 AAC [RRG DBB][DADA] 


-: Cover :- 
 
image.html


-: Screens :-
 
image.html
 

-: Info :-  


General

Format                           :  MP4 Video
File size                        : 1.16 GiB
Duration                         : 2h 55mn
Overall bit rate                 : 951 Kbps

Video
Format                           : AVC
Format/Info                      : Advanced Video Codec
Format profile                   : Main@L3.0
Format settings, CABAC           : Yes
Format settings, ReFrames        : 3 frames
Duration                         : 2h 55mn
Bit rate                         : 815 Kbps
Width                            : 854 pixels
Height                           : 480 pixels
Display aspect ratio             : 16:9
Frame rate mode                  : Constant
Frame rate                       : 25.000 fps
Color space                      : YUV
Chroma subsampling               : 4:2:0
Bit depth                        : 8 bits
Scan type                        : Progressive
Bits/(Pixel*Frame)               : 0.079
Stream size                      : 1 020 MiB (86%)

Audio
Format                           : AAC
Format/Info                      : Advanced Audio Codec
Format version                   : Version 4
Format profile                   : LC
Format settings, SBR             : No
Duration                         : 2h 55mn
Bit rate                         : 129 Kbps
Channel(s)                       : 2 channels
Channel positions                : Front: L R
Sampling rate                    : 44.1 KHz
Bit depth                        : 16 bits
Stream size                      : 161 MiB (14%)


 
http://www.imdb.com/title/tt0091284
    Genres:
Indian Cinema, Drama, Romance
    Language:
Hindi

    Running time:
2:55:10
    Partner rating: 
GREEN
    Released:
Apr 16, 1986


Cast & Crew
Cast

    Feroz Khan
    Anil Kapoor
    Dimple Kapadia
    Sridevi
    Amrish Puri
    Shakti Kapoor
    Jagdeep
    Raza Murad.

Directors

    Feroz Khan

Producers

    Feroz Khan

Writers

    K.K. Shukla.

Super hit movie Janbaaz (1986) Synopsis : Rana Vikram Singh lives in a spacious farmhouse with his wife, Laxmi, and two sons. His elder son, Rajesh, is a dedicated police inspector; and his second son, Amar, is a slacker, womanizer, and alcoholic. When an orphaned young woman, Reshma, comes to live with them, Amar gets intimate with her. When Rana comes to know of Amar's interest in Reshma, he warns him that Reshma is not suitable for their family. But Amar maintains an interest and is jealous to see Reshma in the company of Vikas, an employee at the farmhouse. A fight ensues between Vikas and Amar, and Vikas is killed. Amar is now on the run, and Inspector Rajesh has been assigned the task of apprehending him. Only the future will tell if Rajesh will actually apprehend his younger brother, or will he be asked to do otherwise by his parents? 
		
Janbaaz.1986.DvDrip.1CD.X264.AAC.RRG.DADA.DBBIANS.Com.mp4 1.25 GB
Gathering some info...

Register and log in Isohunt and see no captcha anymore!

4000 symbols left
Hash d3c6fafc92f989f2afc054a5358e204b5b8df7b8