imdb
rating

7.7
Real Time with Bill Maher

Real Time with Bill Maher (2003)

Comedy, Talk

Full description

Real.Time.With.Bill.Maher.JUST.OVERTIME.2013.03.15.XviD.avi

Size 63.13 MB   0 seeders     Added 2013-03-16 09:27:35

Stream torrent
Starting‥ You need BitLord! Get it from 1BitLord.com
10
To download or stream you need BitLord. Visit them at BitLord.com
Real.Time.With.Bill.Maher.JUST.OVERTIME.2013.03.15.avi
BoonesFerry, hopefully this one will work a little better for you.
Video
ID                               : 0
Format                           : MPEG-4 Visual
Format profile                   : Simple@L3
Format settings, BVOP            : No
Format settings, QPel            : No
Format settings, GMC             : No warppoints
Format settings, Matrix          : Default (H.263)
Codec ID                         : XVID
Codec ID/Hint                    : XviD
Duration                         : 6mn 51s
Bit rate                         : 1 057 Kbps
Width                            : 624 pixels
Height                           : 336 pixels
Display aspect ratio             : 1.857
Frame rate                       : 29.970 fps
Color space                      : YUV
Chroma subsampling               : 4:2:0
Bit depth                        : 8 bits
Scan type                        : Progressive
Compression mode                 : Lossy
Bits/(Pixel*Frame)               : 0.168
Stream size                      : 51.9 MiB (86%)
Writing library                  : XviD 1.2.1 (UTC 2008-12-04)
Audio
ID                               : 1
Format                           : MPEG Audio
Format version                   : Version 1
Format profile                   : Layer 3
Mode                             : Joint stereo
Mode extension                   : MS Stereo
Codec ID                         : 55
Codec ID/Hint                    : MP3
Duration                         : 6mn 51s
Bit rate mode                    : Constant
Bit rate                         : 160 Kbps
Channel(s)                       : 2 channels
Sampling rate                    : 44.1 KHz
Compression mode                 : Lossy
Stream size                      : 7.86 MiB (13%)
Alignment                        : Split accross interleaves
Interleave, duration             : 67 ms (2.00 video frames)
Interleave, preload duration     : 500 ms
Writing library                  : LAME3.98r
Encoding settings                : -m j -V 4 -q 2 -lowpass 17.5 -b 160		
Real.Time.With.Bill.Maher.JUST.OVERTIME.2013.03.15.XviD.avi 63.13 MB
Gathering some info...

Register and log in Isohunt and see no captcha anymore!

4000 symbols left
Hash 4d3466c6922f58dfc4e0f56ef0b24489bd8d3cb1

Related torrents for "Real.Time.With.Bill.Maher.JUST.OVERTIME.2013.03.15.XviD.avi"

Torrent search:

2013