imdb
rating

7.0
Rebellion

Rebellion (2011)

Action, Drama, History

Full description
quality   dvd bd x264 hd dvdrip fullhd

Rebellion 2011 BRRip 720p x264 AAC - PRiSTiNE [P2PDL]

Size 798.91 MB   1 seeders     Added 2013-03-16 12:00:40

Stream torrent
Starting‥ You need BitLord! Get it from BitLord.com
To download or stream you need BitLord. Visit them at BitLord.com
							Rebellion 2011 BRRip 720p x264 AAC - PRiSTiNEOriginal Title: L'ordre et la morale
Genre: Action | Drama | History
Plot: Dissidents in a French colony attack a police station and take hostages.
Director: Mathieu Kassovitz
Stars: Mathieu Kassovitz, Iabe Lapacas, Malik Zidi.
Rated: N/aInfo:http://www.imdb.com/title/tt1242521/Trailer:https://www.youtube.com/watch?v=b2PvnpVfYD8Format : MPEG-4
File size : 752 MiB
Duration : 2h 14mn
Overall bit rate : 781 Kbps
Video Format : AVC
Video Bit rate : 700 Kbps
Width : 1 280 pixels
Height : 546 pixels
Display aspect ratio : 2.35:1
Frame rate mode : Constant
Frame rate : 24.000 fps
Stream size : 673 MiB (89%)
Writing library : x264 core 129 r2245
Audio Format : AAC
Audio Bit rate : 79.2 Kbps
Channel(s) : 2 channels
Channel positions : Front: L R
Sampling rate : 48.0 KHz
Stream size : 76.2 MiB (10%)
Language : French
Subtitle : Yes(English)
Source : 720p Bluray DD5.1 x264-EbP(Thanks)Screenshots:
----------------------------------------------------------------------------------------------------Encoded using revolutionary 10bit encoding, which enables us to provide you more crispier and
sharper images at small sizes, just make sure you follow our instructions without a fault.
Recommend to you to use latest version of VLC player. Install K-Lite Codec Pack or shark007 codecs
in case of any kind of problem in playback (For non-VLC Media Player users). Alternatively, install
Core AVC codecs, the fastest decoder that there is coupled with Community Center Codec Pack and play
on Windows Media Player Classic. Check sample to be sure.
Enjoy!
Greets to: Vitamin_X, a2zRG, srkfan, MgB, Stumpie1971, StyLishSaLH and, Masta staff members at ExtraTorrent,
TPB, H33T, KAT, 1337x, PublicHD, Ahashare, BTScene, SilverTorrent, LimeTorrents, TorrentMafia, P2PDL, and all
others.
Encoder Notes: Looking For Early Access To Anything You Can Provide DVDScr, R5, DVDR, BluRay, Direct
Audio, Music Releases and Seedboxes. We require dedicated servers, so as to do more and fast releases of movies.
If You Got anything to offer contact us at "prg@hush.com".
						
Rebellion 2011 BRRip 720p x264 AAC - PRiSTiNE [P2PDL]/Rebellion 2011 BRRip 720p x264 AAC - PRiSTiNE/Rebellion 2011 BRRip 720p x264 AAC - PRiSTiNE.mp4 788.566 MB
Rebellion 2011 BRRip 720p x264 AAC - PRiSTiNE [P2PDL]/Sample.mp4 10.207 MB
Rebellion 2011 BRRip 720p x264 AAC - PRiSTiNE [P2PDL]/Rebellion 2011 BRRip 720p x264 AAC - PRiSTiNE/Rebellion 2011 BRRip 720p x264 AAC - PRiSTiNE.srt 131.728 KB
Gathering some info...

Register and log in Isohunt and see no captcha anymore!

4000 symbols left
Hash 0251bfd91c3d155589be75047bb0d746741cc722

Related torrents for "Rebellion 2011 BRRip 720p x264 AAC - PRiSTiNE [P2PDL]"

Torrent search:

x264 hd bd 2011