imdb
rating

5.3
A Good Day to Die Hard

A Good Day to Die Hard (2013)

Action, Thriller

Full description

A Good Day To Die Hard 2013 TS XviD Feel-Free

Size 1.018 GB   0 seeders     Added 2013-03-16 12:16:15

Stream torrent
Starting‥ You need BitLord! Get it from BitLord.com
To download or stream you need BitLord. Visit them at BitLord.com
SourceiRTYMARY/ MiNiSTRY Thanks
Encoder:Tony 
http://www.imdb.com/title/tt1606378/

Format                                   : AVI
Format/Info                              : Audio Video Interleave
File size                                : 971 MiB
Duration                                 : 1h 31mn
Overall bit rate                         : 1 490 Kbps
Writing application                      : VirtualDubMod 1.5.10.2 (build 2540/release)
Writing library                          : VirtualDubMod build 2540/release

Video
ID                                       : 0
Format                                   : MPEG-4 Visual
Format profile                           : Advanced Simple@L5
Format settings, BVOP                    : 1
Format settings, QPel                    : No
Format settings, GMC                     : No warppoints
Format settings, Matrix                  : Default (H.263)
Codec ID                                 : XVID
Codec ID/Hint                            : XviD
Duration                                 : 1h 31mn
Bit rate                                 : 1 321 Kbps
Width                                    : 640 pixels
Height                                   : 344 pixels
Display aspect ratio                     : 1.860
Frame rate                               : 25.000 fps
Color space                              : YUV
Chroma subsampling                       : 4:2:0
Bit depth                                : 8 bits
Scan type                                : Progressive
Compression mode                         : Lossy
Bits/(Pixel*Frame)                       : 0.240
Stream size                              : 860 MiB (89%)
Writing library                          : XviD 1.2.1 (UTC 2008-12-04)

Audio
ID                                       : 1
Format                                   : AC-3
Format/Info                              : Audio Coding 3
Mode extension                           : CM (complete main)
Codec ID                                 : 2000
Duration                                 : 1h 31mn
Bit rate mode                            : Constant
Bit rate                                 : 160 Kbps
Channel(s)                               : 2 channels
Channel positions                        : Front: L R
Sampling rate                            : 48.0 KHz
Bit depth                                : 16 bits
Compression mode                         : Lossy
Stream size                              : 104 MiB (11%)
Alignment                                : Aligned on interleaves
Interleave, duration                     : 40 ms (1.00 video frame)
Interleave, preload duration             : 512 ms		
A Good Day To Die Hard 2013 TS XviD Feel-Free/A Good Day To Die Hard 2013 TS XviD Feel-Free.avi 1.018 GB
A Good Day To Die Hard 2013 TS XviD Feel-Free/vlcsnap-2012-12-28-17h21m12s176.png 250.052 KB
A Good Day To Die Hard 2013 TS XviD Feel-Free/vlcsnap-2012-12-28-17h21m18s234.png 298.205 KB
Gathering some info...

Register and log in Isohunt and see no captcha anymore!

4000 symbols left
Hash fe0da7701092b90ae7dc498e1107dcf94aac7d3e

Related torrents for "A Good Day To Die Hard 2013 TS XviD Feel-Free"

Torrent search:

telesync 2013