imdb
rating

5.1
Hell Ride

Hell Ride (2008)

Action, Thriller, Indie

Full description
quality   bd dvdrip hd hdtv dvdr screener x264

[ www.Speed.Cd ] - Hell.Ride.2008.BRRip.XviD-playXD

Size 747.231 MB   0 seeders     Added 2013-03-16 12:46:46

Stream torrent
Starting‥ You need BitLord! Get it from BitLord.com
To download or stream you need BitLord. Visit them at BitLord.com
-

      the fast  and The Hottest Private Tracker on the net

Please Seed back to make the speed Faster!!
 ............ NFO .............
-General
Complete name                            : E:Hell.Ride.2008.BRRip.XviD-playXDHell.Ride.2008.BRRip.XviD-playXD.avi
Format                                   : AVI
Format/Info                              : Audio Video Interleave
File size                                : 702 MiB
Duration                                 : 1h 23mn
Overall bit rate                         : 1 170 Kbps
Writing application                      : VirtualDubMod 1.5.10.2 (build 2540/release)
Writing library                          : VirtualDubMod build 2540/release

Video
ID                                       : 0
Format                                   : MPEG-4 Visual
Format profile                           : Advanced Simple@L5
Format settings, BVOP                    : 3
Format settings, QPel                    : Yes
Format settings, GMC                     : No warppoints
Format settings, Matrix                  : Default (MPEG)
Codec ID                                 : XVID
Codec ID/Hint                            : XviD
Duration                                 : 1h 23mn
Bit rate                                 : 1 033 Kbps
Width                                    : 640 pixels
Height                                   : 272 pixels
Display aspect ratio                     : 2.35:1
Frame rate                               : 23.976 fps
Color space                              : YUV
Chroma subsampling                       : 4:2:0
Bit depth                                : 8 bits
Scan type                                : Progressive
Compression mode                         : Lossy
Bits/(Pixel*Frame)                       : 0.247
Stream size                              : 619 MiB (88%)
Writing library                          : XviD 1.2.1 (UTC 2008-12-04)

Audio
ID                                       : 1
Format                                   : MPEG Audio
Format version                           : Version 1
Format profile                           : Layer 3
Mode                                     : Joint stereo
Mode extension                           : MS Stereo
Codec ID                                 : 55
Codec ID/Hint                            : MP3
Duration                                 : 1h 23mn
Bit rate mode                            : Constant
Bit rate                                 : 128 Kbps
Channel(s)                               : 2 channels
Sampling rate                            : 48.0 KHz
Compression mode                         : Lossy
Stream size                              : 76.7 MiB (11%)
Alignment                                : Aligned on interleaves
Interleave, duration                     : 42 ms (1.00 video frame)
Interleave, preload duration             : 504 ms
Writing library                          : LAME3.99r
Encoding settings                        : -m j -V 4 -q 2 -lowpass 17 -b 128		
[ www.Speed.Cd ] - Hell.Ride.2008.BRRip.XviD-playXD/Hell.Ride.2008.BRRip.XviD-playXD.avi 735.683 MB
[ www.Speed.Cd ] - Hell.Ride.2008.BRRip.XviD-playXD/playXD.nfo 5.854 KB
[ www.Speed.Cd ] - Hell.Ride.2008.BRRip.XviD-playXD/Romanian.srt 55.847 KB
Gathering some info...

Register and log in Isohunt and see no captcha anymore!

4000 symbols left
Hash 89ac399b8b9685c305897de040366ceb1b32b758

Related torrents for "[ www.Speed.Cd ] - Hell.Ride.2008.BRRip.XviD-playXD"

Torrent search:

2008 bd