imdb
rating

5.3
In Their Skin

In Their Skin (2012)

Horror, Thriller

Full description
quality   dvdrip web-rip hd bd x264

[ www.Speed.Cd ] - In.Their.Skin.2012.DVDRip.XviD-playXD

Size 746.615 MB   2 seeders     Added 2013-03-16 12:46:31

Stream torrent
Starting‥ You need BitLord! Get it from 1BitLord.com
To download or stream you need BitLord. Visit them at BitLord.com
-

      the fast  and The Hottest Private Tracker on the net

Please Seed back to make the speed Faster!!
 ............ NFO .............
-General
Complete name                            : E:ENCODEe2.avi
Format                                   : AVI
Format/Info                              : Audio Video Interleave
File size                                : 704 MiB
Duration                                 : 1h 36mn
Overall bit rate                         : 1 020 Kbps
Writing application                      : VirtualDubMod 1.5.10.2 (build 2540/release)
Writing library                          : VirtualDubMod build 2540/release

Video
ID                                       : 0
Format                                   : MPEG-4 Visual
Format profile                           : Advanced Simple@L5
Format settings, BVOP                    : 3
Format settings, QPel                    : Yes
Format settings, GMC                     : No warppoints
Format settings, Matrix                  : Default (H.263)
Codec ID                                 : XVID
Codec ID/Hint                            : XviD
Duration                                 : 1h 36mn
Bit rate                                 : 883 Kbps
Width                                    : 640 pixels
Height                                   : 272 pixels
Display aspect ratio                     : 2.35:1
Frame rate                               : 23.976 fps
Color space                              : YUV
Chroma subsampling                       : 4:2:0
Bit depth                                : 8 bits
Scan type                                : Progressive
Compression mode                         : Lossy
Bits/(Pixel*Frame)                       : 0.211
Stream size                              : 609 MiB (87%)
Writing library                          : XviD 1.2.1 (UTC 2008-12-04)

Audio
ID                                       : 1
Format                                   : MPEG Audio
Format version                           : Version 1
Format profile                           : Layer 3
Mode                                     : Joint stereo
Mode extension                           : MS Stereo
Codec ID                                 : 55
Codec ID/Hint                            : MP3
Duration                                 : 1h 36mn
Bit rate mode                            : Constant
Bit rate                                 : 128 Kbps
Channel(s)                               : 2 channels
Sampling rate                            : 48.0 KHz
Compression mode                         : Lossy
Stream size                              : 88.3 MiB (13%)
Alignment                                : Aligned on interleaves
Interleave, duration                     : 42 ms (1.00 video frame)
Interleave, preload duration             : 504 ms
Writing library                          : LAME3.99r
Encoding settings                        : -m j -V 4 -q 2 -lowpass 17 -b 128		
[ www.Speed.Cd ] - In.Their.Skin.2012.DVDRip.XviD-playXD/In.Their.Skin.2012.DVDRip.XviD-playXD.avi 738.21 MB
[ www.Speed.Cd ] - In.Their.Skin.2012.DVDRip.XviD-playXD/playXD.nfo 5.74 KB
[ www.Speed.Cd ] - In.Their.Skin.2012.DVDRip.XviD-playXD/Romanian.sub 42.916 KB
Gathering some info...

Register and log in Isohunt and see no captcha anymore!

4000 symbols left
Hash 73941ba28ce8bd2ce3b4f164d96e84de75e59c27

Related torrents for "[ www.Speed.Cd ] - In.Their.Skin.2012.DVDRip.XviD-playXD"

Torrent search:

dvdrip 2012