Helen Hunt leaving yoga class in Brentwood-March 14,2013[Orion_Me]

Size 2.005 MB   0 seeders     Added 2013-03-16 14:32:48

To download or stream you need BitLord. Visit them at BitLord.com
_________________________  Visit us at _________________________
http://p2pdl.com  ____________________________  http://p2pdl.com
Rebellion 2011 BRRip 720p x264 AAC - PRiSTiNE
Original Title: Lordre et la morale
Genre: Action | Drama | History
Plot: Dissidents in a French colony attack a police station and take hostages.
Director: Mathieu Kassovitz
Stars: Mathieu Kassovitz, Iabe Lapacas, Malik Zidi.
Rated: N/a
Info: http://www.imdb.com/title/tt1242521/
Trailer:
Format                         : MPEG-4
File size                      : 752 MiB
Duration                       : 2h 14mn
Overall bit rate               : 781 Kbps
Video Format                   : AVC
Video Bit rate                 : 700 Kbps
Width                          : 1 280 pixels
Height                         : 546 pixels
Display aspect ratio           : 2.35:1
Frame rate mode                : Constant
Frame rate                     : 24.000 fps
Stream size                    : 673 MiB (89%)
Writing library                : x264 core 129 r2245
Audio Format                   : AAC
Audio Bit rate                 : 79.2 Kbps
Channel(s)                     : 2 channels
Channel positions              : Front: L R
Sampling rate                  : 48.0 KHz
Stream size                    : 76.2 MiB (10%)
Language                       : French
Subtitle                       : Yes(English)
Source                         : 720p Bluray DD5.1 x264-EbP(Thanks)
Screenshots:
----------------------------------------------------------------------------------------------------
Encoded using revolutionary 10bit encoding, which enables us to provide you more crispier 
and sharper images at small sizes, just make sure you follow our instructions without a fault.
Recommend to you to use latest version of VLC player. Install K-Lite Codec Pack or shark007 codecs
in case of any kind of problem in playback (For non-VLC Media Player users). Alternatively, install
Core AVC codecs, the fastest decoder that there is coupled with Community Center Codec Pack and play
on Windows Media Player Classic.
Encoder Notes: Encoder Notes: Looking For Early Access To Anything You Can Provide DVDScr, R5, DVDR, BluRay, Direct
Audio, Music Releases and Seedboxes. We require dedicated servers, so as to do more and fast releases of movies.
If You Got anything to offer contact us at prg@hush.com.		
Helen Hunt leaving yoga class in Brentwood-March 14,2013[Orion_Me]/helenhunt_031413_01.jpg 183.909 KB
Helen Hunt leaving yoga class in Brentwood-March 14,2013[Orion_Me]/helenhunt_031413_07.jpg 179.953 KB
Helen Hunt leaving yoga class in Brentwood-March 14,2013[Orion_Me]/helenhunt_031413_02.jpg 174.557 KB
Gathering some info...

Register and log in Isohunt and see no captcha anymore!

4000 symbols left
Hash 38055a208400f73a2c977eb2ec17c19ec7abbd1a