imdb
rating

8.0
Special 26

Special 26 (2013)

Crime, Drama, Thriller

Full description
quality   hd x264 dvdrip

Special 26 (2013) DvdRip X264 MSubs 5.1CH 720P [Team Jaffa].mkv

Size 2.362 GB   0 seeders     Added 2013-03-16 14:58:13

Stream torrent
Starting‥ You need BitLord! Get it from BitLord.com
To download or stream you need BitLord. Visit them at BitLord.com
							Quote:
General
Format : Matroska
Format version : Version 4 / Version 2
File size : 2.20 GiB
Duration : 2h 23mn
Overall bit rate : 2 194 Kbps
Writing application : mkvmerge v6.0.0 ('Coming Up For Air')
Writing library : libebml v1.3.0 + libmatroska v1.4.0
Video
ID : 1
Format : AVC
Format/Info : Advanced Video Codec
Format profile : High@L3.1
Format settings, CABAC : Yes
Format settings, ReFrames : 4 frames
Codec ID : V_MPEG4/ISO/AVC
Duration : 2h 23mn
Bit rate : 1 742 Kbps
Width : 1 280 pixels
Height : 544 pixels
Display aspect ratio : 2.35:1
Frame rate mode : Constant
Frame rate : 23.976 fps
Color space : YUV
Chroma subsampling : 4:2:0
Bit depth : 8 bits
Scan type : Progressive
Bits/(Pixel*Frame) : 0.104
Stream size : 1.71 GiB (78%)
Writing library : x264 core 129 r2245 bc13772
Language : English
Default : Yes
Forced : No
Audio
ID : 2
Format : AC-3
Format/Info : Audio Coding 3
Mode extension : CM (complete main)
Format settings, Endianness : Big
Codec ID : A_AC3
Duration : 2h 23mn
Bit rate mode : Constant
Bit rate : 448 Kbps
Channel(s) : 6 channels
Channel positions : Front: L C R, Side: L R, LFE
Sampling rate : 48.0 KHz
Bit depth : 16 bits
Compression mode : Lossy
Stream size : 460 MiB (20%)
Default : Yes
Forced : No
Text #1
ID : 3
Format : VobSub
Muxing mode : zlib
Codec ID : S_VOBSUB
Codec ID/Info : The same subtitle format used on DVDs
Language : English
Default : Yes
Forced : No
Text #2
ID : 4
Format : VobSub
Muxing mode : zlib
Codec ID : S_VOBSUB
Codec ID/Info : The same subtitle format used on DVDs
Language : Arabic
Default : No
Forced : No
Special 26 (2013) DvdRip X264 MSubs 5.1CH 720P [Team Jaffa].mkv 2.362 GB
Gathering some info...

Register and log in Isohunt and see no captcha anymore!

4000 symbols left
Hash 69bde482a0b5e13127543696f6b0b4d16b2b89e9

Related torrents for "Special 26 (2013) DvdRip X264 MSubs 5.1CH 720P [Team Jaffa].mkv"

Torrent search:

dvdrip x264 hd 2013