Red

Red (2001)

Drama

Full description

The Seven Red Berets (1969)

Size 1.538 GB   0 seeders     Added 2013-03-17 00:46:00

Stream torrent
Starting‥ You need BitLord! Get it from BitLord.com
To download or stream you need BitLord. Visit them at BitLord.com
*******************************************************************************
                          The Seven Red Berets (1969)
*******************************************************************************

-------------------------------------------------------------------------------
                              General Information
-------------------------------------------------------------------------------
Type.................: Movie



Video Format.........: AVI
Video Bitrate........: 2261
Resolution...........: 692 x 446
Color................: 8 bit
FPS..................: 25.000
Source...............: DVD from video
Original Format......: NTSC
Genre................: War
IMDb Rating..........: 5.3
Movie Information....: http://www.imdb.com/title/tt0132535/

-------------------------------------------------------------------------------
                               Post Information
-------------------------------------------------------------------------------
Posted by............: RadioResearch
Posted on............: 3/17/2013

-------------------------------------------------------------------------------
                                 Release Notes
-------------------------------------------------------------------------------
SEEDBOX SUPPORTED!

ORIGINAL TITLE; Sette Baschi Rossi

ENGLISH WITH HARD-CODED GREEK SUBTITLES

Deep in the African Congo, revolution rages and explosive documents have fallen 
into the hands of nationalist guerillas. The Red Berets are the governments only 
hope of retrieving papers which could change the course of the war.

This is another of the lost Macaroni Combat films and deals with the Congo 
Crisis ('66-'67).  It's not too bad of a film, being something of a cross 
between Dark of the Sun and Zulu Dawn. starring Dale Cummings (Battle of the 
Damned), Ivan Rassimov (of various Eurotrash films of dubious distinction), 
Sieghardt Rupp (Der Bockerer, A Fistful of Dollars), Arthur Brauss (Cross of 
Iron) and a whole host of Macaroni Combat regulars.

Now the bad news:  This film is virtually impossible to lay hands on.  I have 
never seen it available.  This one has hard-coded Greek subtitles.  It is also 
from a DVD which was apparently made from a video.  The video itself has one or 
two tracking issues, mostly near the end of the film, plus some regular 
sparkling and a little color wash on the right hand side.  I had to crop the 
bottom of the film to get rid of spurious video trash.  It appears that whoever 
made this with the Greek subtitles blacked out a little bit of the bottom of the 
screen, probably so the subtitles that were there could be replaced with the 
Greek ones.  Thankfully the subtitles are sparse and mostly unobtrusive.

Now for the audio.  It's actually quite good but for an annoying crosstalk issue 
in the right channel.  If you have the volume high, during quiet parts, you will 
hear what appears to be a BBC documentary on gorillas at a low-level in the 
right channel.  The irony of this is not lost on me. ;-)  Can't be helped and 
there is a special place in Hell for the imbecile who allowed this to creep on 
to the audio track.

I therefore have to give the film an A/V rating of 7.5 and 9 respectively.

Due to the rarity of this one, I believe collectors will still be happy.

If you find a better copy out there or happen across a DVD, even in the original 
Italian, good lord man, put it up for the rest of us!

Thanks and enjoy!

RadioResearch

General
Complete name                            : G:The Seven Red Berets 
(1969)7_red_berets.avi
Format                                   : AVI
Format/Info                              : Audio Video Interleave
Format profile                           : OpenDML
File size                                : 1.43 GiB
Duration                                 : 1h 30mn
Overall bit rate                         : 2 261 Kbps
Movie name                               : Movie
Writing application                      : MEncoder 5.0
Writing library                          : [= DigiArty videodll! =]

Video
ID                                       : 0
Format                                   : MPEG-4 Visual
Format profile                           : Simple@L1
Format settings, BVOP                    : No
Format settings, QPel                    : No
Format settings, GMC                     : No warppoints
Format settings, Matrix                  : Default (H.263)
Codec ID                                 : DX50
Codec ID/Hint                            : DivX 5
Duration                                 : 1h 30mn
Bit rate                                 : 1 999 Kbps
Width                                    : 692 pixels
Height                                   : 446 pixels
Display aspect ratio                     : 1.552
Frame rate                               : 25.000 fps
Color space                              : YUV
Chroma subsampling                       : 4:2:0
Bit depth                                : 8 bits
Scan type                                : Progressive
Compression mode                         : Lossy
Bits/(Pixel*Frame)                       : 0.259
Stream size                              : 1.27 GiB (88%)
Writing library                          : Lavc54.71.100

Audio
ID                                       : 1
Format                                   : AC-3
Format/Info                              : Audio Coding 3
Mode extension                           : CM (complete main)
Format settings, Endianness              : Big
Codec ID                                 : 2000
Duration                                 : 1h 30mn
Bit rate mode                            : Constant
Bit rate                                 : 256 Kbps
Channel(s)                               : 2 channels
Channel positions                        : Front: L R
Sampling rate                            : 48.0 KHz
Bit depth                                : 16 bits
Compression mode                         : Lossy
Delay relative to video                  : 9ms
Stream size                              : 166 MiB (11%)
Alignment                                : Split accross interleaves
Interleave, duration                     : 500 ms (12.50 video frames)
Interleave, preload duration             : 500 ms




-------------------------------------------------------------------------------
Generated with Cool NFO Creator - http://fly.to/coolbeans
-------------------------------------------------------------------------------
		
The Seven Red Berets (1969)/info.txt 2.816 KB
The Seven Red Berets (1969)/7_red_berets.avi 1.538 GB
The Seven Red Berets (1969)/7_Red.nfo 6.663 KB
Gathering some info...

Register and log in Isohunt and see no captcha anymore!

4000 symbols left
Hash c5da2f641c2bc6d6af82ff5b0f5172d203c94000

Related torrents for "The Seven Red Berets (1969)"

Torrent search:

1969