imdb
rating

5.5
The Twilight Saga: Breaking Dawn - Part 2

The Twilight Saga: Breaking Dawn - Part 2 (2012)

Adventure, Drama, Fantasy, Romance

Full description
quality   dvdrip x264 hd bd screener

The Twilight Saga Breaking Dawn Part 2 2012 DVDRip X264 ( MP4 ) { Lampmp3 }

Size 684.632 MB   25 seeders     Added 2013-03-17 05:16:13

Stream torrent
Starting‥ You need BitLord! Get it from 1BitLord.com
To download or stream you need BitLord. Visit them at BitLord.com
General

Format                                   : MPEG-4
Format profile                           : Base Media
Source                                   : Lampmp3
Encoder                                  : Lampmp3
Codec ID                                 : isom
File size                                : 653 MiB
Duration                                 : 1h 55mn
Overall bit rate mode                    : Variable
Overall bit rate                         : 792 Kbps
Writing application                      : Lavf52.84.0



Video
ID                                       : 1
Format                                   : MPEG-4 Visual
Format profile                           : Simple@L3
Format settings, BVOP                    : No
Format settings, QPel                    : No
Format settings, GMC                     : No warppoints
Format settings, Matrix                  : Default (H.263)
Codec ID                                 : 20
Duration                                 : 1h 55mn
Bit rate                                 : 692 Kbps
Width                                    : 640 pixels
Height                                   : 272 pixels
Display aspect ratio                     : 2.35:1
Frame rate mode                          : Variable
Frame rate                               : 23.976 fps
Minimum frame rate                       : 23.976 fps
Maximum frame rate                       : 24.000 fps
Color space                              : YUV
Chroma subsampling                       : 4:2:0
Bit depth                                : 8 bits
Scan type                                : Progressive
Compression mode                         : Lossy
Bits/(Pixel*Frame)                       : 0.166
Stream size                              : 570 MiB (87%)
Writing library                          : ZJMedia MPEG Encoder

Audio
ID                                       : 2
Format                                   : AAC
Format/Info                              : Advanced Audio Codec
Format profile                           : LC
Codec ID                                 : 40
Duration                                 : 1h 55mn
Bit rate mode                            : Variable
Bit rate                                 : 96.0 Kbps
Channel(s)                               : 2 channels
Channel positions                        : Front: L R
Sampling rate                            : 48.0 KHz
Compression mode                         : Lossy
Stream size                              : 79.1 MiB (12%)







 
 
 
 
 












Acesan8s | Taker | Oziman | PsyYoGi | Sam | NickkkDon |

And All PPL Like my Torrent And All My Friend in Other Site		
The Twilight Saga Breaking Dawn Part 2 2012 DVDRip X264 ( MP4 ) { Lampmp3 }/The Twilight Saga Breaking Dawn Part 2 2012 DVDRip X264 ( MP4 ) { Lampmp3 }.mp4 684.545 MB
The Twilight Saga Breaking Dawn Part 2 2012 DVDRip X264 ( MP4 ) { Lampmp3 }/Poster.jpg 86.526 KB
The Twilight Saga Breaking Dawn Part 2 2012 DVDRip X264 ( MP4 ) { Lampmp3 }/Torrent Downloaded From ExtraTorrent.com.txt 353 B
Gathering some info...

Register and log in Isohunt and see no captcha anymore!

4000 symbols left
Hash 99be0bcf13d989e8157758104d26e20165f2c635

Related torrents for "The Twilight Saga Breaking Dawn Part 2 2012 DVDRip X264 ( MP4 ) { Lampmp3 }"

Torrent search:

dvdrip x264 2012