Grand

Grand (1990)

Comedy

Full description

F1 Grand Prix - Race 1 - Australia - Setanta (BBC) (17th March 2013) [PDTV (XviD)].avi

Size 1.148 GB   16 seeders     Added 2013-03-17 07:32:09

Stream torrent
Starting‥ You need BitLord! Get it from BitLord.com
To download or stream you need BitLord. Visit them at BitLord.com
Race Australia. All the action from the main race of the Australian Formula 1 Grand Prix in Albert Park, Melbourne...With Ben Edwards as commentator alongside co-commentator David Coulthard from the BBC.

Technical Info:

Video
ID                               : 0
Format                           : MPEG-4 Visual
Format profile                   : Advanced Simple@L5
Format settings, BVOP            : Yes
Format settings, QPel            : No
Format settings, GMC             : No warppoints
Format settings, Matrix          : Default (H.263)
Muxing mode                      : Packed bitstream
Codec ID                         : XVID
Codec ID/Hint                    : XviD
Duration                         : 1h 54mn
Bit rate                         : 1 202 Kbps
Width                            : 624 pixels
Height                           : 336 pixels
Display aspect ratio             : 1.857
Frame rate                       : 25.000 fps
Resolution                       : 8 bits
Colorimetry                      : 4:2:0
Scan type                        : Progressive
Bits/(Pixel*Frame)               : 0.229
Stream size                      : 983 MiB (90%)
Writing library                  : XviD 1.2.1 (UTC 2008-12-04)

Audio
ID                               : 1
Format                           : MPEG Audio
Format version                   : Version 1
Format profile                   : Layer 3
Mode                             : Joint stereo
Format_Settings_ModeExtension    : MS Stereo
Codec ID                         : 55
Codec ID/Hint                    : MP3
Duration                         : 1h 54mn
Bit rate mode                    : Constant
Bit rate                         : 128 Kbps
Channel(s)                       : 2 channels
Sampling rate                    : 48.0 KHz
Stream size                      : 105 MiB (10%)
Alignment                        : Aligned on interleaves
Interleave, duration             : 40 ms (1.00 video frame)
Interleave, preload duration     : 480 ms



RACE ONLY. No chit chat, NO walks.. start to podium.. ONLY.		
F1 Grand Prix - Race 1 - Australia - Setanta (BBC) (17th March 2013) [PDTV (XviD)].avi 1.148 GB
Gathering some info...

Register and log in Isohunt and see no captcha anymore!

4000 symbols left
Hash 95b6c257f278a28d1fb458581522d40718a7e7b2

Related torrents for "F1 Grand Prix - Race 1 - Australia - Setanta (BBC) (17th March 2013) [PDTV (XviD)].avi"

Torrent search:

hdtv 2013