imdb
rating

6.4
Oz: The Great and Powerful

Oz: The Great and Powerful (2013)

Adventure, Fantasy, Family

Full description

Oz the Great and Powerful 2013 HDTS XVID AC3 BHRG

Size 1.254 GB   0 seeders     Added 2013-03-17 07:45:52

Stream torrent
Starting‥ You need BitLord! Get it from 1BitLord.com
To download or stream you need BitLord. Visit them at BitLord.com
Format                                   : AVI
Format/Info                              : Audio Video Interleave
File size                                : 1.16 GiB
Duration                                 : 2h 4mn
Overall bit rate                         : 1 332 Kbps
Writing library                          : VirtualDub build 30091/release

Video
ID                                       : 0
Format                                   : MPEG-4 Visual
Format profile                           : Advanced Simple@L5
Format settings, BVOP                    : 2
Format settings, QPel                    : No
Format settings, GMC                     : No warppoints
Format settings, Matrix                  : Default (H.263)
Muxing mode                              : Packed bitstream
Codec ID                                 : XVID
Codec ID/Hint                            : XviD
Duration                                 : 2h 4mn
Bit rate                                 : 1 194 Kbps
Width                                    : 656 pixels
Height                                   : 272 pixels
Display aspect ratio                     : 2.40:1
Frame rate                               : 25.000 fps
Color space                              : YUV
Chroma subsampling                       : 4:2:0
Bit depth                                : 8 bits
Scan type                                : Progressive
Compression mode                         : Lossy
Bits/(Pixel*Frame)                       : 0.268
Stream size                              : 1.04 GiB (90%)
Writing library                          : XviD 1.2.1 (UTC 2008-12-04)

Audio
ID                                       : 1
Format                                   : AC-3
Format/Info                              : Audio Coding 3
Mode extension                           : CM (complete main)
Format settings, Endianness              : Big
Codec ID                                 : 2000
Duration                                 : 2h 4mn
Bit rate mode                            : Constant
Bit rate                                 : 128 Kbps
Channel(s)                               : 2 channels
Channel positions                        : Front: L R
Sampling rate                            : 48.0 KHz
Bit depth                                : 16 bits
Compression mode                         : Lossy
Stream size                              : 114 MiB (10%)		
Oz the Great and Powerful 2013 HDTS XVID AC3 BHRG/Oz the Great and Powerful 2013 HDTS XVID AC3 BHRG sample.avi 12.767 MB
Oz the Great and Powerful 2013 HDTS XVID AC3 BHRG/Oz the Great and Powerful 2013 HDTS XVID AC3 BHRG.avi 1.241 GB
Oz the Great and Powerful 2013 HDTS XVID AC3 BHRG/www.RARBG.com.txt 45 B
Gathering some info...

Register and log in Isohunt and see no captcha anymore!

4000 symbols left
Hash f75d2ab954c0cd9df9d589db59b2bfb378cc201e

Related torrents for "Oz the Great and Powerful 2013 HDTS XVID AC3 BHRG"

Torrent search:

2013