imdb
rating

6.5
Evil Dead

Evil Dead (2013)

Horror

Full description
quality   dvdrip fullhd screener hd

Evil Dead 2013 Dvd-Rip XviD - PRESTiGE

Size 805.506 MB   0 seeders     Added 2013-03-17 14:03:07

Stream torrent
Starting‥ You need BitLord! Get it from 1BitLord.com
To download or stream you need BitLord. Visit them at BitLord.com

*******************************************************************************
               Evil Dead 2013 Dvd-Rip XviD - PRESTiGE 
******************************************************************************* 
  
         
General Information:   
    
Complete name                            :   

Evil Dead 2013 Dvd-Rip XviD - PRESTiGE
 
Format                                   : AVI
Format/Info                              : Audio Video Interleave
Format profile                           : OpenDML
File size                                : 786 MB
Duration                                 : 90 min
Overall bit rate                         : 1 756 Kbps
Language                                 : English
Subs                                     : N/A
Source                                   : 720p-FASM Many THANKS
Encoder                                  : akosipalos
 
http://www.imdb.com/title/tt1288558/

Video

ID                                       : 0
Format                                   : MPEG-4 Visual
Format profile                           : Advanced Simple@L5
Format settings, BVOP                    : 2
Format settings, QPel                    : No
Format settings, GMC                     : No warppoints
Format settings, Matrix                  : Default (H.263)
Codec ID                                 : XVID
Codec ID/Hint                            : XviD
Duration                                 : 90 min
Bit rate                                 : 1 303 Kbps
Width                                    : 720 pixels
Height                                   : 304 pixels
Display aspect ratio                     : 2.35:1
Frame rate                               : 23.976 fps
Color space                              : YUV
Chroma subsampling                       : 4:2:0
Bit depth                                : 8 bits
Scan type                                : Progressive
Compression mode                         : Lossy
Bits/(Pixel*Frame)                       : 0.248
Stream size                              : 1.56 GiB (74%)
Writing library                          : XviD 1.2.1 (UTC 2008-12-04)

Audio

ID                                       : 1
Format                                   : AC-3
Format/Info                              : Audio Coding 3
Mode extension                           : CM (complete main)
Codec ID                                 : 2000
Duration                                 : 90 min
Bit rate mode                            : Constant
Bit rate                                 : 448 Kbps
Channel(s)                               : 2 channels
Channel positions                        : Front: L R
Sampling rate                            : 48.0 KHz
Bit depth                                : 16 bits
Compression mode                         : Lossy
Stream size                              : 548 MiB (26%)
Alignment                                : Split accross interleaves
Interleave, duration                     : 500 ms (11.99 video frames)
Interleave, preload duration             : 500 ms


Plot:

Five friends head to a remote cabin, where the discovery of a Book of the Dead leads them to unwittingly summon up demons living in the nearby woods. The evil presence possesses them until only one is left to fight for survival.

Screens:
 
image 
image 
image 
image 
image 
image 
image


Release Notes:

WE DONT RELEASE EVERYTHiNG TO OTHERS SiTES YOU WANT MORE OF OUR STUFF COME FiND US AT .......

WE ARE LOOKING FOR SUPPLiERS BLURAY, CAM, R5, PRE RETAiL DVD GOT SOMETHiNG WE MiGHT LiKE WHEN YOU FiND US TELL US.......


GREETZ:

Twisted | Bigguy | CTFX | Whitestag13 | THoRN | SANTi | PA4U2C | Jungledave | mtyy
| marsby | cld | Stortrapp | rizal | mannilim | Rock | Ulap | centserick2 | Galactica |
musikera | Tukmol | rock3r | canislupus | sickie | fun2knytz | lilyrose | Dreamer
 RiZAL Team Release | TRiNiTY | LEGi0N | LEGiTiMATE | HiVE-CM8 | BHRG | DTRG 
  CrEwSaDe | Rx | LKRG | THC | aTLas | SiC | AbSurdiTy 

[img]image[/img]

PRESTiGE is the level of respect at which one is regarded by others....RIzE Above Or Sink Below...
		
Evil Dead 2013 Dvd-Rip XviD - PRESTiGE/Evil Dead 2013 Dvd-Rip XviD - PRESTiGE.avi 805.306 MB
Evil Dead 2013 Dvd-Rip XviD - PRESTiGE/cover.jpg 193.87 KB
Evil Dead 2013 Dvd-Rip XviD - PRESTiGE/PRESTiGE.nfo 4.613 KB
Gathering some info...

Register and log in Isohunt and see no captcha anymore!

4000 symbols left
Hash 8979ee338de14ebc4813413d4626101d899b9d75

Related torrents for "Evil Dead 2013 Dvd-Rip XviD - PRESTiGE"

Torrent search:

2013