1920.Evil.Returns.2012.720p.BluRay.nHD.x264-NhaNc3.mkv

Size 2.621 GB   4 seeders     Added 2013-03-17 15:46:35

Stream torrent
Starting‥ You need BitLord! Get it from BitLord.com
To download or stream you need BitLord. Visit them at BitLord.com
 image 
image 
image 
image 
image

Media Info - 
Video
ID : 1
Format : AVC
Format/Info : Advanced Video Codec
Format profile : High@L4.1
Format settings, CABAC : Yes
Format settings, ReFrames : 8 frames
Codec ID : V_MPEG4/ISO/AVC
Duration : 2h 4mn
Bit rate : 2 429 Kbps
Width : 1 280 pixels
Height : 544 pixels
Display aspect ratio : 2.35:1
Frame rate : 24.000 fps
Color space : YUV
Chroma subsampling : 4:2:0
Bit depth : 8 bits
Scan type : Progressive
Bits/(Pixel*Frame) : 0.145
Stream size : 2.06 GiB (84%)
Writing library : x264 core 129 r2230 1cffe9f
Language : English
Default : Yes
Forced : No
Color primaries : BT.709-5, BT.1361, IEC 61966-2-4, SMPTE RP177
Transfer characteristics : BT.709-5, BT.1361
Matrix coefficients : BT.709-5, BT.1361, IEC 61966-2-4 709, SMPTE RP177

Audio
ID : 2
Format : AC-3
Format/Info : Audio Coding 3
Mode extension : CM (complete main)
Codec ID : A_AC3
Duration : 2h 4mn
Bit rate mode : Constant
Bit rate : 384 Kbps
Channel(s) : 6 channels
Channel positions : Front: L C R, Side: L R, LFE
Sampling rate : 48.0 KHz
Bit depth : 16 bits
Compression mode : Lossy
Stream size : 341 MiB (14%)
Language : English
Default : Yes
Forced : Yes
Ripper : NhaNc3

Seeding 24x7... Extreme Seeding...


Enjoy!
		
1920.Evil.Returns.2012.720p.BluRay.nHD.x264-NhaNc3.mkv 2.621 GB
Gathering some info...

Register and log in Isohunt and see no captcha anymore!

4000 symbols left
Hash db3ab146012b39af1eab826053579d317f77c655