imdb
rating

3.6
Dracula 3D

Dracula 3D (2012)

Horror, Thriller, Romance

Full description
quality   dvdrip h264 x264 hd bd fullhd

Dracula 2012 BRRip XviD Ac3 Feel-Free

Size 1.486 GB   0 seeders     Added 2013-03-17 16:32:40

Stream torrent
Starting‥ You need BitLord! Get it from 1BitLord.com
To download or stream you need BitLord. Visit them at BitLord.com
Genre:Horror | Romance | Thriller
Language:English
IMDb:http://www.imdb.com/title/tt1852770/
Source:BluRay Thanks
Encoder:Tony

Format                                   : AVI
Format/Info                              : Audio Video Interleave
File size                                : 1.38 GiB
Duration                                 : 1h 50mn
Overall bit rate                         : 1 799 Kbps

Video
ID                                       : 0
Format                                   : MPEG-4 Visual
Format profile                           : Advanced Simple@L5
Format settings, BVOP                    : 1
Format settings, QPel                    : No
Format settings, GMC                     : No warppoints
Format settings, Matrix                  : Default (H.263)
Codec ID                                 : XVID
Codec ID/Hint                            : XviD
Duration                                 : 1h 50mn
Bit rate                                 : 1 405 Kbps
Width                                    : 640 pixels
Height                                   : 272 pixels
Display aspect ratio                     : 2.35:1
Frame rate                               : 23.976 fps
Color space                              : YUV
Chroma subsampling                       : 4:2:0
Bit depth                                : 8 bits
Scan type                                : Progressive
Compression mode                         : Lossy
Bits/(Pixel*Frame)                       : 0.337
Stream size                              : 1.08 GiB (78%)
Writing library                          : XviD 1.2.1 (UTC 2008-12-04)

Audio
ID                                       : 1
Format                                   : AC-3
Format/Info                              : Audio Coding 3
Mode extension                           : CM (complete main)
Codec ID                                 : 2000
Duration                                 : 1h 50mn
Bit rate mode                            : Constant
Bit rate                                 : 384 Kbps
Channel(s)                               : 6 channels
Channel positions                        : Front: L C R, Side: L R, LFE
Sampling rate                            : 48.0 KHz
Bit depth                                : 16 bits
Compression mode                         : Lossy
Stream size                              : 302 MiB (21%)
Alignment                                : Aligned on interleaves
Interleave, duration                     : 42 ms (1.00 video frame)
Interleave, preload duration             : 512 ms

 
Plot:
The tale begins with Jonathan Harker, journeying by train and carriage from England to Count Dracula's crumbling...		
Dracula 2012 BRRip XviD Ac3 Feel-Free/38857801315015706426.png 624.245 KB
Dracula 2012 BRRip XviD Ac3 Feel-Free/Dracula 2012 BRRip XviD Ac3 Feel-Free.avi 1.484 GB
Dracula 2012 BRRip XviD Ac3 Feel-Free/Dracula 2012 BRRip XviD Ac3 Feel-Free.nfo 3.247 KB
Gathering some info...

Register and log in Isohunt and see no captcha anymore!

4000 symbols left
Hash 299329d830f922073396dff51b539e708d46939b

Related torrents for "Dracula 2012 BRRip XviD Ac3 Feel-Free"

Torrent search:

2012 bd