Ireland

Ireland (2004)

Drama

Full description

2013.03.16.6N.Italy.v.Ireland.720p.x264

Size 3.183 GB   2 seeders     Added 2013-03-17 17:38:32

Stream torrent
Starting‥ You need BitLord! Get it from 1BitLord.com
To download or stream you need BitLord. Visit them at BitLord.com
							SPORT: Six Nations Rugby Union - Italy v Ireland
On: BBC 1 HD 
Date: Saturday 16th March 2013 
Time: KO 14:30
Live coverage of Italy v Ireland on the last day of the 2013 Six Nations. The Italians will be hoping to finish the tournament in the manner they started, following an incredible win over France on the opening weekend. However, they will have to defy history if they are to beat Ireland - they have not beaten them in 13 previous Six Nations encounters, including a 42-10 loss last year. For Ireland's players it will be a last chance to impress on the international stage before the British and Irish Lions squad is picked for the tour of Australia this summer. Commentary by Conor McNamara and Phillip Matthews, with expert analysis from Italian legend Marco Bortolami.
[2.96Gb, 115mins, 1280x720[16:9], 3541Kbps, x264/mp4; Audio: AAC-LC, 124Kbps]
General
Complete name: 2013.03.16.6N.Italy.v.Ireland.720p.x264.mp4
Format: MPEG-4
Format profile: Base Media
Codec ID: isom
File size: 2.96 GiB
Duration: 1h 55mn
Overall bit rate mode: Variable
Overall bit rate: 3 669 Kbps
Video
ID: 1
Format: AVC
Format/Info: Advanced Video Codec
Format profile: High@L4.1
Format settings, CABAC: Yes
Format settings, ReFrames: 4 frames
Codec ID: avc1
Codec ID/Info: Advanced Video Coding
Duration: 1h 55mn
Bit rate: 3 541 Kbps
Maximum bit rate: 11.6 Mbps
Width: 1 280 pixels
Height: 720 pixels
Display aspect ratio: 16:9
Frame rate mode: Constant
Frame rate: 25.000 fps
Color space: YUV
Chroma subsampling: 4:2:0
Bit depth: 8 bits
Scan type: Progressive
Bits/(Pixel*Frame): 0.154
Stream size: 2.86 GiB (97%)
Writing library: x264 core 130 r2273 b3065e6
Audio
ID: 2
Format: AAC
Format/Info: Advanced Audio Codec
Format profile: LC
Codec ID: 40
Duration: 1h 55mn
Bit rate mode: Variable
Bit rate: 124 Kbps
Maximum bit rate: 129 Kbps
Channel(s): 2 channels
Channel positions: Front: L R
Sampling rate: 48.0 KHz
Compression mode: Lossy
Stream size: 102 MiB (3%)
						
2013.03.16.6N.Italy.v.Ireland.720p.x264/2013.03.16.6N.Italy.v.Ireland.720p.x264.mp4 3.182 GB
2013.03.16.6N.Italy.v.Ireland.720p.x264/2013.03.16.6N.Italy.v.Ireland.720p.x264.png 1.056 MB
2013.03.16.6N.Italy.v.Ireland.720p.x264/2013.03.16.6N.Italy.v.Ireland.720p.x264.nfo 2.015 KB
Gathering some info...

Register and log in Isohunt and see no captcha anymore!

4000 symbols left
Hash db2889c3898590fc283b44fb9fad89a009761cb3

Related torrents for "2013.03.16.6N.Italy.v.Ireland.720p.x264"

Torrent search:

x264 hd 2013