2013.03.16.6N.France.v.Scotland.720p.x264

Size 3.509 GB   0 seeders     Added 2013-03-17 17:46:44

Stream torrent
Starting‥ You need BitLord! Get it from BitLord.com
To download or stream you need BitLord. Visit them at BitLord.com
SPORT: Six Nations Rugby Union - France v Scotland
On: BBC HD 
Date: Saturday 16th March 2013 
Time: 19:30 to 22:00 


Gabby Logan introduces live coverage of the final match of the 2013 Six Nations as France take on Scotland at the Stade de France. The French have endured their worst ever start to a Six Nations campaign to put the pressure firmly on coach Philippe Saint-Andre. However, they have only lost to the Scots once in the Six Nations era and never on home soil. In fact, Scotland have only managed two victories in France since 1969. Commentary by Andrew Cotter and Lawrence Dallaglio, with expert analysis from Andy Nicol.

[3.27Gb, 130mins, 1280x720[16:9], 3469Kbps, x264/mp4; Audio: AAC-LC, 124Kbps]

General
Complete name: 2013.03.16.6N.France.v.Scotland.720p.x264.mp4
Format: MPEG-4
Format profile: Base Media
Codec ID: isom
File size: 3.27 GiB
Duration: 2h 10mn
Overall bit rate mode: Variable
Overall bit rate: 3 597 Kbps

Video
ID: 1
Format: AVC
Format/Info: Advanced Video Codec
Format profile: High@L4.1
Format settings, CABAC: Yes
Format settings, ReFrames: 4 frames
Codec ID: avc1
Codec ID/Info: Advanced Video Coding
Duration: 2h 10mn
Bit rate: 3 469 Kbps
Maximum bit rate: 10.1 Mbps
Width: 1 280 pixels
Height: 720 pixels
Display aspect ratio: 16:9
Frame rate mode: Constant
Frame rate: 25.000 fps
Color space: YUV
Chroma subsampling: 4:2:0
Bit depth: 8 bits
Scan type: Progressive
Bits/(Pixel*Frame): 0.151
Stream size: 3.15 GiB (96%)
Writing library: x264 core 130 r2273 b3065e6

Audio
ID: 2
Format: AAC
Format/Info: Advanced Audio Codec
Format profile: LC
Codec ID: 40
Duration: 2h 10mn
Bit rate mode: Variable
Bit rate: 124 Kbps
Maximum bit rate: 128 Kbps
Channel(s): 2 channels
Channel positions: Front: L R
Sampling rate: 48.0 KHz
Compression mode: Lossy
Stream size: 115 MiB (3%)
Language: English		
2013.03.16.6N.France.v.Scotland.720p.x264/2013.03.16.6N.France.v.Scotland.720p.x264.mp4 3.507 GB
2013.03.16.6N.France.v.Scotland.720p.x264/2013.03.16.6N.France.v.Scotland.720p.x264.png 1.412 MB
2013.03.16.6N.France.v.Scotland.720p.x264/2013.03.16.6N.France.v.Scotland.720p.x264.nfo 1.893 KB
Gathering some info...

Register and log in Isohunt and see no captcha anymore!

4000 symbols left
Hash c8e53898865fc5e19f8ba43ef47c2251a8a53825