[ www.Speed.Cd ] - The Escapist[2001]dvdrip[xvid Ac3[5.1] - Insomniack

Size 824.241 MB   0 seeders     Added 2013-03-17 22:33:30

Stream torrent
Starting‚Ä• You need BitLord! Get it from BitLord.com
To download or stream you need BitLord. Visit them at BitLord.com
-

      the fast  and The Hottest Private Tracker on the net

Please Seed back to make the speed Faster!!
 ............ NFO .............
-General
Complete name                            : The Escapist[2001]dvdrip[xvid Ac3[5.1]  - Insomniack.avi
Format                                   : AVI
Format/Info                              : Audio Video Interleave
File size                                : 786 MiB
Duration                                 : 1h 30mn
Overall bit rate                         : 1 215 Kbps
Writing application                      : VirtualDubMod 1.5.4.1 (build 2178/release)
Writing library                          : VirtualDubMod build 2178/release

Video
ID                                       : 0
Format                                   : MPEG-4 Visual
Format profile                           : Simple@L3
Format settings, BVOP                    : No
Format settings, QPel                    : No
Format settings, GMC                     : No warppoints
Format settings, Matrix                  : Default (H.263)
Codec ID                                 : XVID
Codec ID/Hint                            : XviD
Duration                                 : 1h 30mn
Bit rate                                 : 1 080 Kbps
Width                                    : 720 pixels
Height                                   : 400 pixels
Display aspect ratio                     : 16:9
Frame rate                               : 23.976 fps
Color space                              : YUV
Chroma subsampling                       : 4:2:0
Bit depth                                : 8 bits
Scan type                                : Progressive
Compression mode                         : Lossy
Bits/(Pixel*Frame)                       : 0.156
Stream size                              : 699 MiB (89%)
Writing library                          : XviD 1.2.0.dev47 (UTC 2006-11-01)

Audio
ID                                       : 1
Format                                   : MPEG Audio
Format version                           : Version 1
Format profile                           : Layer 3
Mode                                     : Joint stereo
Mode extension                           : MS Stereo
Codec ID                                 : 55
Codec ID/Hint                            : MP3
Duration                                 : 1h 30mn
Bit rate mode                            : Constant
Bit rate                                 : 128 Kbps
Channel(s)                               : 2 channels
Sampling rate                            : 48.0 KHz
Compression mode                         : Lossy
Stream size                              : 82.8 MiB (11%)
Alignment                                : Aligned on interleaves
Interleave, duration                     : 83 ms (2.00 video frames)
Interleave, preload duration             : 504 ms
Writing library                          : LAME3.97 
Encoding settings                        : -m j -V 4 -q 2 -lowpass 17 -b 128
Language                                 : English		
[ www.Speed.Cd ] - The Escapist[2001]dvdrip[xvid Ac3[5.1] - Insomniack/The Escapist[2001]dvdrip[xvid Ac3[5.1] - Insomniack.avi 824.238 MB
[ www.Speed.Cd ] - The Escapist[2001]dvdrip[xvid Ac3[5.1] - Insomniack/The Escapist[2001]dvdrip[xvid Ac3[5.1] - Insomniack.nfo 2.9 KB
[ www.Speed.Cd ] - The Escapist[2001]dvdrip[xvid Ac3[5.1] - Insomniack/www.Speed.Cd read me .txt 60 B
Gathering some info...

Register and log in Isohunt and see no captcha anymore!

4000 symbols left
Hash d06bbb5f17f04e01d8ea45f499e55af81bb98916

Related torrents for "[ www.Speed.Cd ] - The Escapist[2001]dvdrip[xvid Ac3[5.1] - Insomniack"

Torrent search:

dvdrip 2001