imdb
rating

7.9
Power

Power (2014)

Drama

Full description

[ www.Speed.Cd ] - Oz.the.Great.and.Powerful.2013.HDTS.XVID.AC3.HQ.Hive-CM8

Size 1.695 GB   0 seeders     Added 2013-03-18 02:38:15

Stream torrent
Starting‥ You need BitLord! Get it from BitLord.com
To download or stream you need BitLord. Visit them at BitLord.com
							-
 the fast and The Hottest Private Tracker on the net
Please Seed back to make the speed Faster!!
 ............ NFO .............
-Oz.the.Great.and.Powerful.2013.HDTS.XVID.AC3.HQ.Hive-CM8Sources: 
Video: 720p THC
Audio: Ministry/MysteryMan
thx guys
Encode:
last but not least, here comes a nice improved version of the Oz Movie,
i skipped the first cam around it was way too bright and had glare spots which were beyond repairing, waited for a good one
and finally THC came around and made my day, scenes at broad daylight were perfect and not overdone, but darker
scenes especially in the woods were too dark,also wasnt very sharp, but good to begin with.
since there is no way to make one setting for the whole movie i had no other choice than to cut the movie in loads of pieces
and treat every part as needed, brightness,contrast are adjusted now scene by scene without going over,
varies from +10% up to +50% on night scenes, 
added lots of sharpness to get the video cleaner, could have done a lot more if the source file were in x264, instead avi was used which cant handle a lot
without pixelation.
I also included 2 pics from the night scene where you can now still see
whats going on.
For the Audio, it was a nice line already, still heard some crackle here and there so ran it through some intensive filtering, sounds pretty nice now
The First half of the movie wasnt that perfect synced 150ms moved around back and forth all the time, so i had to resync it to get all lipsync.
Took me 2 Days to make it perfect
The Result is great and will do me till retail
enjoy
PS: the first 20mins of the movie are in 4:3 in black and white, same as in cinema, so not my doing, guess we have to live with that. :=)
Video: 720x304 @bitrate 1500 2pass
Audio: English AC3 2.0 Stereo
Sample: yes 2 includedhttp://www.imdb.com/title/tt1623205/General
Complete name : Oz.the.Great.and.Powerful.2013.HDTS.XVID.AC3.HQ.Hive-CM8.avi
Format : AVI
Format/Info : Audio Video Interleave
File size : 1.56 GiB
Duration : 2h 4mn
Overall bit rate : 1 795 Kbps
Writing application : Nandub v1.0rc2
Writing library : Nandub build 1853/release
Video
ID : 0
Format : MPEG-4 Visual
Format profile : Advanced Simple@L5
Format settings, BVOP : 2
Format settings, QPel : Yes
Format settings, GMC : No warppoints
Format settings, Matrix : Default (H.263)
Muxing mode : Packed bitstream
Codec ID : XVID
Codec ID/Hint : XviD
Duration : 2h 4mn
Bit rate : 1 529 Kbps
Width : 720 pixels
Height : 304 pixels
Display aspect ratio : 2.35:1
Frame rate : 25.000 fps
Color space : YUV
Chroma subsampling : 4:2:0
Bit depth : 8 bits
Scan type : Progressive
Compression mode : Lossy
Bits/(Pixel*Frame) : 0.279
Stream size : 1.33 GiB (85%)
Writing library : XviD 1.2.1 (UTC 2008-12-04)
Audio
ID : 1
Format : AC-3
Format/Info : Audio Coding 3
Mode extension : CM (complete main)
Format settings, Endianness : Big
Codec ID : 2000
Duration : 2h 4mn
Bit rate mode : Constant
Bit rate : 256 Kbps
Channel(s) : 2 channels
Channel positions : Front: L R
Sampling rate : 48.0 KHz
Bit depth : 16 bits
Compression mode : Lossy
Delay relative to video : 31ms
Stream size : 227 MiB (14%)
Alignment : Split accross interleaves
Interleave, duration : 40 ms (1.00 video frame)
Interleave, preload duration : 500 msPlot:
A small-time magician arrives in an enchanted land and is forced to decide if he will be a good man or a great one.Cast:
James Franco	... 	Oz
Mila Kunis	... 	Theodora
Rachel Weisz	... 	Evanora
Michelle Williams	... 	Annie / Glinda
Zach Braff	... 	Frank / Finley
Pics on dark Scenes:
Greetz
LTFS,ViSiON,SPK,SceneLovers,PRESTiGE,SANTi,3LT0N,YanKeeS,COPYxRIGHT,THC,T0XiC
D2U,LKRG,ADTRG,Feel-Free,KoDeKinG,FLAWL3SS,WBZ,BHRG,26K,NOVA,MAGNET
Unevano,BigVik,Rapeseed,SAFC,goldadvance,KaN1vE,Pinnz,Wayne,HiGH
SeeN,jtr,Limey,ICONiK,4PlayHD,THEDEN-RG,eXceSs,AKS74u,TED
Mr Hive,rkofan,and most P2P groups
Great Work Guys :D
LOOKING FOR ANYTHING YOU WANT TO LOOK AND SOUND BETTER
CM8@hushmail.com
						
[ www.Speed.Cd ] - Oz.the.Great.and.Powerful.2013.HDTS.XVID.AC3.HQ.Hive-CM8/Oz.the.Great.and.Powerful.2013.HDTS.XVID.AC3.HQ.Hive-CM8.avi 1.673 GB
[ www.Speed.Cd ] - Oz.the.Great.and.Powerful.2013.HDTS.XVID.AC3.HQ.Hive-CM8/Oz.the.Great.and.Powerful.2013.HDTS.XVID.AC3.HQ.Hive-CM8.nfo 5.423 KB
[ www.Speed.Cd ] - Oz.the.Great.and.Powerful.2013.HDTS.XVID.AC3.HQ.Hive-CM8/sample.avi 10.756 MB
Gathering some info...

Register and log in Isohunt and see no captcha anymore!

4000 symbols left
Hash ff99b594949c2774b9c93e4972394dbad6c31f7d

Related torrents for "[ www.Speed.Cd ] - Oz.the.Great.and.Powerful.2013.HDTS.XVID.AC3.HQ.Hive-CM8"

Torrent search:

2013