O Senhor dos Anéis - A Sociedade do Anél.mkv

Size 14.343 GB   0 seeders     Added 2013-03-18 02:47:29

Stream torrent
Starting‥ You need BitLord! Get it from BitLord.com
To download or stream you need BitLord. Visit them at BitLord.com
The Lord of the Rings: The Fellowship of the Ring (O Senhor dos Anéis: A Sociedade do Anel (título no Brasil) ou O Senhor dos Anéis: A Irmandade do Anel (título em Portugal)) é um filme de fantasia[2] dirigido por Peter Jackson e baseado no primeiro volume da série O Senhor dos Anéis, de J.R.R. Tolkien.
O filme narra a procura do Senhor do Escuro Sauron pelo Um Anel. O anel que atualmente está em posse do hobbit Frodo Bolseiro (Elijah Wood). O destino da Terra-média está em risco, e ele depende apenas de Frodo e mais oito companheiros que formam a Sociedade do Anel que agora rumam para a Montanha da Perdição, na Terra de Mordor, o único local onde o anel pode ser destruído.
Lançado nos Estados Unidos em 10 de dezembro de 2001, o filme foi aclamado por críticos e fãs, especialmente porque muitos destes julgaram o filme como a mais fiel adaptação da história original da trilogia O Senhor dos Anéis, de Jackson. Foi um grande sucesso de bilheteria, faturando mais de $870 milhões no mundo inteiro, e o segundo filme de maior bilheteria de 2001 nos EUA e no mundo (atrás apenas de Harry Potter and the Philosopher's Stone), o que na época lhe garatiu o posto de 5º filme de maior bilheteria na história.
Hoje ele é o 28º filme de maior bilheteria de todos os tempos. O filme ganhou quatro Óscars e cinco BAFTAs, incluindo melhor filme e melhor diretor na premiação BAFTA. A Edição Especial Estendida foi lançada em 2 de novembro de 2002, em DVD, e em 28 de junho de 2011, em Blu-ray. Em 2007, A Sociedade do Anel foi eleita o 50º melhor filme americano na lista do American Film Institute de 100 melhores filme estadunidenses.


Depois do download continue enviando o arquivo.

Video
ID                             : 1
Format                         : AVC
Format/Info                    : Advanced Video Codec
Format profile                 : High@L4.0
Format settings, CABAC         : Yes
Format settings, ReFrames      : 5 frames
Codec ID                       : V_MPEG4/ISO/AVC
Duration                       : 2h 58mn
Bit rate                       : 9 019 Kbps
Width                          : 1 920 pixels
Height                         : 800 pixels
Display aspect ratio           : 2.40:1
Frame rate mode                : Constant
Frame rate                     : 23.976 fps
Color space                    : YUV
Chroma subsampling             : 4:2:0
Bit depth                      : 8 bits
Scan type                      : Progressive
Bits/(Pixel*Frame)             : 0.245
Language                       : English
Default                        : Yes


Audio #1
ID                             : 2
Format                         : AC-3
Format/Info                    : Audio Coding 3
Format profile                 : Dolby Digital
Mode extension                 : CM (complete main)
Format settings, Endianness    : Big
Codec ID                       : A_AC3
Duration                       : 2h 58mn
Bit rate mode                  : Constant
Bit rate                       : 192 Kbps
Channel(s)                     : 2 channels
Channel positions              : Front: L R
Sampling rate                  : 48.0 KHz
Bit depth                      : 16 bits
Compression mode               : Lossy
Delay relative to video        : 2s 0ms
Stream size                    : 245 MiB (2%)
Title                          : PORTUGUES AC3 HIGHSCENE
Language                       : Portuguese
Default                        : Yes
Forced                         : No

Audio #2
ID                             : 3
Format                         : DTS
Format/Info                    : Digital Theater Systems
Format profile                 : ES
Codec ID                       : A_DTS
Duration                       : 2h 58mn
Bit rate mode                  : Constant
Bit rate                       : 1 510 Kbps
Channel(s)                     : 6 channels
Channel positions              : Front: L C R, Side: L R, LFE
Sampling rate                  : 48.0 KHz
Bit depth                      : 24 bits
Compression mode               : Lossy
Stream size                    : 1.88 GiB (14%)
Title                          : INGLES DTS HIGHSCENE
Language                       : English
Default                        : No
Forced                         : No

Text #1
ID                             : 4
Format                         : UTF-8
Codec ID                       : S_TEXT/UTF8
Codec ID/Info                  : UTF-8 Plain Text
Title                          : PORTUGUES HIGHSCENE
Language                       : Portuguese
Default                        : No
Forced                         : No

Text #2
ID                             : 5
Format                         : UTF-8
Codec ID                       : S_TEXT/UTF8
Codec ID/Info                  : UTF-8 Plain Text
Default                        : Yes
Forced                         : Yes

Screenshots:

01 -
02 -
03 -
04 -
05 -

Me siga nas redes sociais: 

Twitter:Google+: https://plus.google.com/u/0/114388008696490975580/about/edit/d
Canal primário:		
O Senhor dos Anéis - A Sociedade do Anél.mkv 14.343 GB
Gathering some info...

Register and log in Isohunt and see no captcha anymore!

4000 symbols left
Hash 3190e3cde656199df587557076c706830a711369

Related torrents for "O Senhor dos Anéis - A Sociedade do Anél.mkv"