Mahabharat Aur Barbareek (2013) 1CD DVDRip XviD Verified

Size 748.128 MB   0 seeders     Added 2013-03-18 04:01:04

Stream torrent
Starting‥ You need BitLord! Get it from 1BitLord.com
10
To download or stream you need BitLord. Visit them at BitLord.com
							Mahabharat Aur Barbareek (2013)imageINFO
[CODE]Rip Information
Code Code:
Format : AVI
Format/Info : Audio Video Interleave
File size : 704 MiB
Duration : 2h 17mn
Overall bit rate : 718 Kbps
Video
Code Code:
Format : MPEG-4 Visual
Format profile : Advanced Simple@L5
Format settings, BVOP : 3
Format settings, QPel : No
Format settings, GMC : No warppoints
Format settings, Matrix : Default (MPEG)
Codec ID : XVID
Codec ID/Hint : XviD
Duration : 2h 17mn
Bit rate : 582 Kbps
Width : 688 pixels
Height : 288 pixels
Display aspect ratio : 2.40:1
Frame rate : 25.000 fps
Color space : YUV
Chroma subsampling : 4:2:0
Bit depth : 8 bits
Scan type : Progressive
Compression mode : Lossy
Bits/(Pixel*Frame) : 0.117
Stream size : 570 MiB (81%)
Writing library : XviD 1.2.1 (UTC 2008-12
Audio
Code Code:
Format : AC-3
Format/Info : Audio Coding 3
Mode extension : CM (complete main)
Format settings, Endianness : Big
Codec ID : 2000
Duration : 2h 17mn
Bit rate mode : Constant
Bit rate : 128 Kbps
Channel(s) : 2 channels
Channel positions : Front: L R
Sampling rate : 48.0 KHz
Bit depth : 16 bits
Compression mode : Lossy
Stream size : 125 MiB (18%)
Alignment : Aligned on interleaves
Interleave, duration : 64 ms (1.60 video frames)
Title : K@rtik
[/CODE]SCREEN SHOTSimage
						
Mahabharat Aur Barbareek (2013) 1CD DVDRip XviD/Mahabharat Aur Barbareek (2013) 1CD DVDRip XviD.avi 737.825 MB
Mahabharat Aur Barbareek (2013) 1CD DVDRip XviD/Sample/Mahabharat Aur Barbareek [2013].Sample.avi 10.303 MB
Mahabharat Aur Barbareek (2013) 1CD DVDRip XviD/Sample/Torrent Tracked By Www.DesiDhamal.Com.txt 77 B
Gathering some info...

Register and log in Isohunt and see no captcha anymore!

4000 symbols left
Hash 40ea6c6b705c3e3040b4f6c71eb0b409b1e8fec4