Bethenny.2012.06.14.Coco.Austin.and.Cheryl.Burke.PDTV.xvid.avi Verified

Size 367.58 MB   0 seeders     Added 2013-03-18 04:58:20

Stream torrent
Starting‚Ä• You need BitLord! Get it from 1BitLord.com
To download or stream you need BitLord. Visit them at BitLord.com
							Bethenny 2012.06.14 Coco Austin and Cheryl Burke 
Bottom's up! Today Bethenny is all about getting a perfect bikini butt! Bethenny is trying out the workouts, the gadgets and the products to figure out what will give you a bangin' booty, and what you should throw in the can. Everyone wants to know the tips and tricks to a perfect butt, and today, Bethenny gets to the bottom of it!
She's also talking with COCO AUSTIN, wife of rapper Ice-T, who is known for having one of the most talked about booties in Hollywood. She's giving us the inside scoop on how she keeps hers in tip-top shape, and what you can do to pump up yours!
Then, two MOMMY MOGULS, Amy James and Carri Goodman, talk to the mommy mogul of them all, Bethenny, about their secret for balancing a successful business with a successful family.General
Complete name : Bethenny.2012.06.14.Coco.Austin.and.Cheryl.Burke.PDTV.xvid.avi
Format : AVI
Format/Info : Audio Video Interleave
File size : 351 MiB
Duration : 42mn 18s
Overall bit rate : 1 159 Kbps
Writing application : MEncoder SVN-r30881(20100311-gcc4.3.3)
Writing library : MPlayerVideo
ID : 0
Format : MPEG-4 Visual
Format profile : Advanced Simple@L5
Format settings, BVOP : 2
Format settings, QPel : No
Format settings, GMC : No warppoints
Format settings, Matrix : Default (H.263)
Codec ID : XVID
Codec ID/Hint : XviD
Duration : 42mn 18s
Bit rate : 1 018 Kbps
Width : 640 pixels
Height : 360 pixels
Display aspect ratio : 16:9
Frame rate : 25.000 fps
Color space : YUV
Chroma subsampling : 4:2:0
Bit depth : 8 bits
Scan type : Progressive
Compression mode : Lossy
Bits/(Pixel*Frame) : 0.177
Stream size : 308 MiB (88%)
Writing library : XviD 1.2.1 (UTC 2008-12-04)Audio
ID : 1
Format : MPEG Audio
Format version : Version 1
Format profile : Layer 3
Mode : Joint stereo
Mode extension : MS Stereo
Codec ID : 55
Codec ID/Hint : MP3
Duration : 42mn 17s
Bit rate mode : Constant
Bit rate : 128 Kbps
Channel(s) : 2 channels
Sampling rate : 44.1 KHz
Compression mode : Lossy
Delay relative to video : 40ms
Stream size : 38.7 MiB (11%)
Alignment : Aligned on interleaves
Interleave, duration : 26 ms (0.65 video frame)
Interleave, preload duration : 522 ms
						
Bethenny.2012.06.14.Coco.Austin.and.Cheryl.Burke.PDTV.xvid.avi 367.58 MB
Gathering some info...

Register and log in Isohunt and see no captcha anymore!

4000 symbols left
Hash 26e4ed9c2346fe7ca6afce8e94403889cc3efe31