Анна Каренина (2005)

Анна Каренина (2005) (2005)

Drama

Full description

Apaharan.2005.720p.BluRay.nHD.x264-NhaNc3.mkv Verified

Size 2.348 GB   2 seeders     Added 2013-03-18 05:38:50

Stream torrent
Starting‥ You need BitLord! Get it from BitLord.com
To download or stream you need BitLord. Visit them at BitLord.com
							image image image image image
Media Info - 
Video
ID : 1
Format : AVC
Format/Info : Advanced Video Codec
Format profile : High@L4.1
Format settings, CABAC : Yes
Format settings, ReFrames : 8 frames
Codec ID : V_MPEG4/ISO/AVC
Duration : 2h 49mn
Bit rate : 1 631 Kbps
Width : 1 280 pixels
Height : 544 pixels
Display aspect ratio : 2.35:1
Frame rate : 24.000 fps
Color space : YUV
Chroma subsampling : 4:2:0
Bit depth : 8 bits
Scan type : Progressive
Bits/(Pixel*Frame) : 0.098
Stream size : 1.88 GiB (86%)
Writing library : x264 core 98 r1649 20cbe10
Language : English
Default : No
Forced : No
Audio
ID : 2
Format : AC-3
Format/Info : Audio Coding 3
Mode extension : CM (complete main)
Codec ID : A_AC3
Duration : 2h 49mn
Bit rate mode : Constant
Bit rate : 224 Kbps
Channel(s) : 6 channels
Channel positions : Front: L C R, Side: L R, LFE
Sampling rate : 48.0 KHz
Bit depth : 16 bits
Compression mode : Lossy
Stream size : 272 MiB (12%)
Language : Hindi
Default : Yes
Forced : No
Ripper : NhaNc3
Seeding 24x7... Extreme Seeding...
Enjoy!
						
Apaharan.2005.720p.BluRay.nHD.x264-NhaNc3.mkv 2.348 GB
Gathering some info...

Register and log in Isohunt and see no captcha anymore!

4000 symbols left
Hash ea181db989f35cbb124414461f26168cfe4f85fe

Related torrents for "Apaharan.2005.720p.BluRay.nHD.x264-NhaNc3.mkv"

Torrent search:

2005 x264 hd bd