imdb
rating

6.3
Jack the Giant Slayer

Jack the Giant Slayer (2013)

Action

Full description
quality   dvdrip x264 telesync hd bd

Jack The Giant Slayer 2013 CAMRip Xvid READNFO-INFERNO

Size 1.312 GB   0 seeders     Added 2013-03-18 07:01:08

Stream torrent
Starting‥ You need BitLord! Get it from 1BitLord.com
To download or stream you need BitLord. Visit them at BitLord.com
::::::::::: ::::    ::: :::::::::: :::::::::: :::::::::  ::::    :::  ::::::::  
  :+:     :+:+:   :+: :+:        :+:        :+:    :+: :+:+:   :+: :+:    :+:
  +:+     :+:+:+  +:+ +:+        +:+        +:+    +:+ :+:+:+  +:+ +:+    +:+
  +#+     +#+ +:+ +#+ :#::+::#   +#++:++#   +#++:++#:  +#+ +:+ +#+ +#+    +:+
  +#+     +#+  +#+#+# +#+        +#+        +#+    +#+ +#+  +#+#+# +#+    +#+
  #+#     #+#   #+#+# #+#        #+#        #+#    #+# #+#   #+#+# #+#    #+#
########### ###    #### ###        ########## ###    ### ###    ####  ########  

SOURCE: HustleHard/NOGRP THANKS
NOT A GREAT SOURCE WITH LOTS OF MOVEMENT,OUT OF FOCUS,NOISE IN THE VID,OFF CENTER BORDERS,BLABLABLA ETC BUT IT IS PROPER ( FULL ) FROM BEGINNING TO END WITH ENGLISH AUDIO SO SOMETHING IS BETTER THEN NOTHING!
WORK DONE: WELL DID A COUPLE VERSION AND CHOOSE THIS FOR OUR V1 SO TO SPEAK SO THAT MEANS WE MIGHT DO/PICK A V2...
FIRST CONVERTED TO AVI AND MP3 AND DROPPED THE FILE IN VDUB WHERE WE ROATED BY 1,200 USING THE BICUBIC FILTER AND THEN USED A CENTER AND BORDER FILTER AND PULLED THE RIGHT SIDE TO THE LEFT TO TRY AND CENTER THE VID A BIT MORE!
CROPPED,CROPPED A BIT MORE AND CROPPED AGAIN( TOP 34,YOUR LEFT48,RIGHT BY 10 AND BOTTOM BY 32) TILL WE COULDN'T CROP ANYMORE WITHOUT LOSING THE WHOLE PICTURE LOL AND THEN RESIZED AND ADDED A DENOISER.
ADDED SOME INT AS WELL AS A LITTLE SAT AND A TINY TINY BIT OF BRIGHTNESS.
NEXT ADDED THE WARP SHARP FILTER TO TRY TO BRING THE FACES OUT A LITTLE MORE IN THE DARK PARTS AND LAST ADDED A MOTION FILTER TO TRY AND REMOVE SOME OF THE FLICKER CAUSE AS MOST KNOW BY USING THE DEFLICKER WILL SOMETIMES LEAVE A GHOSTING EFFECT AS WELL AS SOME SPOTTY GLITCHES SO TO SPEAK

WE CUT THE FIRST 40 SECONDS OFF THE INTRO CAUSE IT WAS JUST A INTRO WITH NOTHING BUT MOVEMENT AND THE CAMMER "TRYING" TO GET CENTERED

4 SAMPLES INCLUDED SO PLEASE CHECK THEM BEFORE YOU DECIDE IF YOU WANNA DOWNLOAD THIS OR NOT AS SOME PARTS LOOKS BETTER THEN OTHERS AND YES YOU HAVE BEEN WARNED!!!

AUDIO UNTOUCHED OTHER THEN CONVERTED TO MP3 AND YES YOU HERE THE GUY BREATHING!!!

STILL HAS SOME NOISE AND A SLIGHT PULSE WITH SOME MOVEMENT AND A FEW BORDERS SO ITS A BIT BETTER IMO AND NOT GREAT BUT WE DID WHAT WE COULD FOR YA!
COULD HAVE DARKENED IT UP TO REMOVE MORE NOISE LOL BUT THEN THERE WOULD BE NO DEATAIL!!!
PLEASE REALIZE YOU CAN ONLY POLISH A TURD SO MUCH...

General
Complete name                            : JtG 2013 CAMRip Xvid-INF.avi
Format                                   : AVI
Format/Info                              : Audio Video Interleave
File size                                : 1.16 GiB
Duration                                 : 1h 42mn
Overall bit rate                         : 1 619 Kbps
Writing application                      : Lavf54.6.100
Writing library                          : VirtualDub build 32842/release

Video
ID                                       : 0
Format                                   : MPEG-4 Visual
Format profile                           : Advanced Simple@L5
Format settings, BVOP                    : 2
Format settings, QPel                    : No
Format settings, GMC                     : No warppoints
Format settings, Matrix                  : Default (H.263)
Muxing mode                              : Packed bitstream
Codec ID                                 : XVID
Codec ID/Hint                            : XviD
Duration                                 : 1h 42mn
Bit rate                                 : 1 478 Kbps
Width                                    : 624 pixels
Height                                   : 320 pixels
Display aspect ratio                     : 1.950
Frame rate                               : 29.970 fps
Color space                              : YUV
Chroma subsampling                       : 4:2:0
Bit depth                                : 8 bits
Scan type                                : Progressive
Compression mode                         : Lossy
Bits/(Pixel*Frame)                       : 0.247
Stream size                              : 1.06 GiB (91%)
Writing library                          : XviD 64

Audio
ID                                       : 1
Format                                   : MPEG Audio
Format version                           : Version 1
Format profile                           : Layer 3
Mode                                     : Joint stereo
Mode extension                           : MS Stereo
Codec ID                                 : 55
Codec ID/Hint                            : MP3
Duration                                 : 1h 42mn
Bit rate mode                            : Constant
Bit rate                                 : 128 Kbps
Channel(s)                               : 2 channels
Sampling rate                            : 44.1 KHz
Compression mode                         : Lossy
Stream size                              : 94.2 MiB (8%)
Alignment                                : Aligned on interleaves
Interleave, duration                     : 26 ms (0.78 video frame)
Interleave, preload duration             : 522 ms


Screens: 
image 
image 
image 
image 
image
		
Jack The Giant Slayer 2013 CAMRip Xvid READNFO-INFERNO/JtG 2013 CAMRip Xvid-INF.avi 1.249 GB
Jack The Giant Slayer 2013 CAMRip Xvid READNFO-INFERNO/jtgs samp.avi 6.346 MB
Jack The Giant Slayer 2013 CAMRip Xvid READNFO-INFERNO/main samp.avi 32.686 MB
Gathering some info...

Register and log in Isohunt and see no captcha anymore!

4000 symbols left
Hash 5b293238b51cb94b877778e951255c7e0bdda69b

Related torrents for "Jack The Giant Slayer 2013 CAMRip Xvid READNFO-INFERNO"

Torrent search:

cam 2013