imdb
rating

6.6
Red Widow

Red Widow (2013)

Drama

Full description

Red.Widow.S01E04.HDTV.Xvid-MrX Verified

Size 394.071 MB   0 seeders     Added 2013-03-18 09:01:50

Stream torrent
Starting‥ You need BitLord! Get it from 1BitLord.com
To download or stream you need BitLord. Visit them at BitLord.com
   _____       ____  ___
  /     ______   /  /
 /   /  _  __      /
/    Y      | /     
____|__  /__| /___/  
        /           _/


Red.Widow.S01E04.HDTV.Xvid-MrX 
http://beta.abc.go.com/shows/red-widow



General
Complete name                            : Red.Widow.S01E04.HDTV.Xvid-MrX.avi
Format                                   : AVI
Format/Info                              : Audio Video Interleave
File size                                : 375 MiB
Duration                                 : 43mn 27s
Overall bit rate mode                    : Variable
Overall bit rate                         : 1 207 Kbps

Video
ID                                       : 0
Format                                   : MPEG-4 Visual
Format profile                           : Advanced Simple@L5
Format settings, BVOP                    : 1
Format settings, QPel                    : No
Format settings, GMC                     : No warppoints
Format settings, Matrix                  : Default (H.263)
Muxing mode                              : Packed bitstream
Codec ID                                 : XVID
Codec ID/Hint                            : XviD
Duration                                 : 43mn 27s
Bit rate                                 : 1 059 Kbps
Width                                    : 640 pixels
Height                                   : 352 pixels
Display aspect ratio                     : 16:9
Frame rate                               : 23.976 fps
Color space                              : YUV
Chroma subsampling                       : 4:2:0
Bit depth                                : 8 bits
Scan type                                : Progressive
Compression mode                         : Lossy
Bits/(Pixel*Frame)                       : 0.196
Stream size                              : 329 MiB (88%)
Writing library                          : XviD 1.2.1 (UTC 2008-12-04)

Audio
ID                                       : 1
Format                                   : MPEG Audio
Format version                           : Version 1
Format profile                           : Layer 3
Codec ID                                 : 55
Codec ID/Hint                            : MP3
Duration                                 : 43mn 27s
Bit rate mode                            : Variable
Bit rate                                 : 135 Kbps
Minimum bit rate                         : 32.0 Kbps
Channel(s)                               : 2 channels
Sampling rate                            : 48.0 KHz
Compression mode                         : Lossy
Stream size                              : 42.1 MiB (11%)
Alignment                                : Aligned on interleaves
Interleave, duration                     : 24 ms (0.58 video frame)
Interleave, preload duration             : 113 ms
Title                                    : Red.Widow.S01E04
Writing library                          : LAME3.99r
Encoding settings                        : -m s -V 4 -q 0 -lowpass 17.5 --vbr-new -b 32
		
Red.Widow.S01E04.HDTV.Xvid-MrX/Red.Widow.S01E04.HDTV.Xvid-MrX.avi 393.378 MB
Red.Widow.S01E04.HDTV.Xvid-MrX/Red.Widow.S01E04.HDTV.Xvid-MrX.png 689.934 KB
Red.Widow.S01E04.HDTV.Xvid-MrX/Red.Widow.S01E04.HDTV.Xvid-MrX.nfo 3.087 KB
Gathering some info...

Register and log in Isohunt and see no captcha anymore!

4000 symbols left
Hash 35fda80076a0cc6da12a91f63245534d8ae00587

Related torrents for "Red.Widow.S01E04.HDTV.Xvid-MrX"

Torrent search:

season 01 hdtv episode 04