imdb
rating

6.1
Parental Guidance

Parental Guidance (2012)

Comedy

Full description

[ www.Speed.Cd ] - Parental.Guidance.2012.DVDRip.XviD-DiN

Size 733.687 MB   4 seeders     Added 2013-03-18 13:46:52

Stream torrent
Starting‥ You need BitLord! Get it from 1BitLord.com
To download or stream you need BitLord. Visit them at BitLord.com
-

      the fast  and The Hottest Private Tracker on the net

Please Seed back to make the speed Faster!!
 ............ NFO .............
-http://www.imdb.com/title/tt1047540/

General

Complete name                            : Parental.Guidance.2012.DVDRip.XviD-DiN

Format                                   : AVI

Format/Info                              : Audio Video Interleave

File size                                : 700 MiB

Duration                                 : 1h 44mn

Overall bit rate                         : 935 Kbps



Video

ID                                       : 0

Format                                   : MPEG-4 Visual

Format profile                           : Advanced Simple@L5

Format settings, BVOP                    : 1

Format settings, QPel                    : No

Format settings, GMC                     : No warppoints

Format settings, Matrix                  : Default (H.263)

Muxing mode                              : Packed bitstream

Codec ID                                 : XVID

Codec ID/Hint                            : XviD

Duration                                 : 1h 44mn

Bit rate                                 : 801 Kbps

Width                                    : 624 pixels

Height                                   : 336 pixels

Display aspect ratio                     : 1.85:1

Frame rate                               : 23.976 fps

Color space                              : YUV

Chroma subsampling                       : 4:2:0

Bit depth                                : 8 bits

Scan type                                : Progressive

Compression mode                         : Lossy

Bits/(Pixel*Frame)                       : 0.159

Stream size                              : 599 MiB (86%)

Writing library                          : XviD 1.2.1 (UTC 2008-12-04)



Audio

ID                                       : 1

Format                                   : MPEG Audio

Format version                           : Version 1

Format profile                           : Layer 3

Mode                                     : Joint stereo

Mode extension                           : MS Stereo

Codec ID                                 : 55

Codec ID/Hint                            : MP3

Duration                                 : 1h 44mn

Bit rate mode                            : Constant

Bit rate                                 : 128 Kbps

Channel(s)                               : 2 channels

Sampling rate                            : 48.0 KHz

Compression mode                         : Lossy

Stream size                              : 95.8 MiB (14%)

Alignment                                : Aligned on interleaves

Interleave, duration                     : 167 ms (4.00 video frames)

Interleave, preload duration             : 216 ms

Title                                    : DVDR-AN0NYM0US

Writing library                          : LAME3.99r

Encoding settings                        : -m j -V 4 -q 2 -lowpass 17 -b 128		
[ www.Speed.Cd ] - Parental.Guidance.2012.DVDRip.XviD-DiN/parental.guidance-din.avi 733.684 MB
[ www.Speed.Cd ] - Parental.Guidance.2012.DVDRip.XviD-DiN/parental.guidance-din.nfo 2.991 KB
[ www.Speed.Cd ] - Parental.Guidance.2012.DVDRip.XviD-DiN/parental.guidance-din.sfv 285 B
Gathering some info...

Register and log in Isohunt and see no captcha anymore!

4000 symbols left
Hash 8155afc4272c6209cdc0b95c8b74371faff13618

Related torrents for "[ www.Speed.Cd ] - Parental.Guidance.2012.DVDRip.XviD-DiN"

Torrent search:

dvdrip 2012