imdb
rating

5.9
Not Suitable For Children

Not Suitable For Children (2012)

Comedy, Romance

Full description
quality   x264 hd bd dvdr dvdrip

[ www.Speed.Cd ] - Not.Suitable.For.Children.2012.BRRip.XviD-playXD

Size 746.292 MB   0 seeders     Added 2013-03-19 13:00:29

Stream torrent
Starting‥ You need BitLord! Get it from BitLord.com
To download or stream you need BitLord. Visit them at BitLord.com
-

      the fast  and The Hottest Private Tracker on the net

Please Seed back to make the speed Faster!!
 ............ NFO .............
-General
Complete name                    : F:Not.Suitable.For.Children.2012.BRRip.XviD-playXDNot.Suitable.For.Children.2012.BRRip.XviD-playXD.avi
Format                           : AVI
Format/Info                      : Audio Video Interleave
File size                        : 703 MiB
Duration                         : 1h 35mn
Overall bit rate                 : 1 025 Kbps
Writing application              : VirtualDubMod 1.5.10.2 (build 2540/release)
Writing library                  : VirtualDubMod build 2540/release

Video
ID                               : 0
Format                           : MPEG-4 Visual
Format profile                   : Advanced Simple@L5
Format settings, BVOP            : Yes
Format settings, QPel            : Yes
Format settings, GMC             : No warppoints
Format settings, Matrix          : Default (H.263)
Codec ID                         : XVID
Codec ID/Hint                    : XviD
Duration                         : 1h 35mn
Bit rate                         : 888 Kbps
Width                            : 640 pixels
Height                           : 272 pixels
Display aspect ratio             : 2.35:1
Frame rate                       : 24.000 fps
Color space                      : YUV
Chroma subsampling               : 4:2:0
Bit depth                        : 8 bits
Scan type                        : Progressive
Bits/(Pixel*Frame)               : 0.212
Stream size                      : 609 MiB (87%)
Writing library                  : XviD 1.2.1 (UTC 2008-12-04)

Audio
ID                               : 1
Format                           : MPEG Audio
Format version                   : Version 1
Format profile                   : Layer 3
Mode                             : Joint stereo
Mode extension                   : MS Stereo
Codec ID                         : 55
Codec ID/Hint                    : MP3
Duration                         : 1h 35mn
Bit rate mode                    : Constant
Bit rate                         : 128 Kbps
Channel(s)                       : 2 channels
Sampling rate                    : 48.0 KHz
Stream size                      : 87.8 MiB (12%)
Alignment                        : Aligned on interleaves
Interleave, duration             : 42 ms (1.00 video frame)
Interleave, preload duration     : 504 ms
Writing library                  : LAME3.99r
Encoding settings                : -m j -V 4 -q 2 -lowpass 17 -b 128		
[ www.Speed.Cd ] - Not.Suitable.For.Children.2012.BRRip.XviD-playXD/Not.Suitable.For.Children.2012.BRRip.XviD-playXD.avi 736.993 MB
[ www.Speed.Cd ] - Not.Suitable.For.Children.2012.BRRip.XviD-playXD/playXD.nfo 4.936 KB
[ www.Speed.Cd ] - Not.Suitable.For.Children.2012.BRRip.XviD-playXD/Romanian.srt 80.663 KB
Gathering some info...

Register and log in Isohunt and see no captcha anymore!

4000 symbols left
Hash 42041494abc1e767aa1126a029add15a86d0bfd2

Related torrents for "[ www.Speed.Cd ] - Not.Suitable.For.Children.2012.BRRip.XviD-playXD"

Torrent search:

2012 bd