imdb
rating

5.4
See Dad Run

See Dad Run (2012)

Comedy, Drama, Family

Full description

See.Dad.Run.S01E14.HDTV.XviD-Tallyortoby.avi

Size 171.956 MB   0 seeders     Added 2013-03-19 16:23:47

Stream torrent
Starting‥ You need BitLord! Get it from BitLord.com
To download or stream you need BitLord. Visit them at BitLord.com
Format                                   : AVI
Format/Info                              : Audio Video Interleave
File size                                : 164 MiB
Duration                                 : 20mn 35s
Overall bit rate                         : 1 113 Kbps
Movie name                               : See.Dad.Run.S01E14.HDTV.XviD-Tallyortoby.mp4
Director                                 : created.with.SUPER(C)+Recorder.2013.55
Writing application                      : SUPER(C)   

Video
ID                                       : 0
Format                                   : MPEG-4 Visual
Format profile                           : Advanced Simple@L5
Format settings, BVOP                    : No
Format settings, QPel                    : No
Format settings, GMC                     : No warppoints
Format settings, Matrix                  : Default (H.263)
Codec ID                                 : XVID
Codec ID/Hint                            : XviD
Duration                                 : 20mn 35s
Bit rate                                 : 973 Kbps
Width                                    : 640 pixels
Height                                   : 360 pixels
Display aspect ratio                     : 16:9
Frame rate                               : 25.000 fps
Color space                              : YUV
Chroma subsampling                       : 4:2:0
Bit depth                                : 8 bits
Scan type                                : Progressive
Compression mode                         : Lossy
Bits/(Pixel*Frame)                       : 0.169
Stream size                              : 143 MiB (87%)
Writing library                          : SUPER(C)   

Audio
ID                                       : 1
Format                                   : MPEG Audio
Format version                           : Version 1
Format profile                           : Layer 3
Mode                                     : Joint stereo
Mode extension                           : MS Stereo
Codec ID                                 : 55
Codec ID/Hint                            : MP3
Duration                                 : 20mn 35s
Bit rate mode                            : Constant
Bit rate                                 : 128 Kbps
Channel(s)                               : 2 channels
Sampling rate                            : 48.0 KHz
Compression mode                         : Lossy
Stream size                              : 18.9 MiB (11%)
Alignment                                : Aligned on interleaves
Interleave, duration                     : 24 ms (0.60 video frame)-------------------------------------Torrent downloaded from http://thepiratebay.se
See.Dad.Run.S01E14.HDTV.XviD-Tallyortoby.avi 171.956 MB
Gathering some info...

Register and log in Isohunt and see no captcha anymore!

4000 symbols left
Hash a1eba0d6a46d5a0db03712434ea0b03b421e82f0

Related torrents for "See.Dad.Run.S01E14.HDTV.XviD-Tallyortoby.avi"

Torrent search:

season 01 episode 14 hdtv