Sound City m2ts 1080p Lpcm 5.1.m2ts

Size 14.312 GB   0 seeders     Added 2013-03-19 18:31:02

Stream torrent
Starting‥ You need BitLord! Get it from BitLord.com
To download or stream you need BitLord. Visit them at BitLord.com
Sound City m2ts 1080p Lpcm 5.1

Foo Fighters frontman and former Nirvana drummer Dave Grohl directs this documentary about Los Angeles' Sound City Studios which specialised in analog recording. Following the closure of the studio in 2011 due to the growing demand for digital recording, Grohl assembled a number of artists, including Josh Homme, Trent Reznor, Paul McCartney and Stevie Nicks, to give interviews and performances while contributing to the creation of a new album.

General
ID : 0 (0x0)
Sound City m2ts 1080p Lpcm 5.1
Format : BDAV
Format/Info : Blu-ray Video
File size : 13.3 GiB
Duration : 1h 47mn
Overall bit rate mode : Variable
Overall bit rate : 17.8 Mbps
Maximum Overall bit rate : 48.0 Mbps

Video
ID : 4113 (0x1011)
Menu ID : 1 (0x1)
Format : AVC
Format/Info : Advanced Video Codec
Format profile : High@L4.1
Format settings, CABAC : Yes
Format settings, ReFrames : 2 frames
Codec ID : 27
Duration : 1h 47mn
Bit rate mode : Variable
Bit rate : 10.2 Mbps
Maximum bit rate : 30.0 Mbps
Width : 1 920 pixels
Height : 1 080 pixels
Display aspect ratio : 16:9
Frame rate : 23.976 fps
Color space : YUV
Chroma subsampling : 4:2:0
Bit depth : 8 bits
Scan type : Progressive
Bits/(Pixel*Frame) : 0.204
Stream size : 7.61 GiB (57%)
Writing library : x264 core
Color primaries : BT.709
Transfer characteristics : BT.709
Matrix coefficients : BT.709

Audio
ID : 4352 (0x1100)
Menu ID : 1 (0x1)
Format : PCM
Format settings, Endianness : Big
Format settings, Sign : Signed
Muxing mode : Blu-ray
Codec ID : 128
Duration : 1h 47mn
Bit rate mode : Constant
Bit rate : 6 912 Kbps
Channel(s) : 6 channels
Channel positions : Front: L C R, Side: L R, LFE
Sampling rate : 48.0 KHz
Bit depth : 24 bits
Stream size : 5.18 GiB (39%)		
Sound City m2ts 1080p Lpcm 5.1.m2ts 14.312 GB
Gathering some info...

Register and log in Isohunt and see no captcha anymore!

4000 symbols left
Hash ed5b3bf3953a7432e142d6a3c70b3634ded5ce13

Related torrents for "Sound City m2ts 1080p Lpcm 5.1.m2ts"

Torrent search:

fullhd