imdb
rating

5.1
186 Dollars to Freedom

186 Dollars to Freedom (2012)

Action, Drama

Full description
quality   x264 hd bd dvdrip dvdr fullhd

186.dollars.to.freedom.2012.BRRip XViD juggs

Size 740.729 MB   0 seeders     Added 2013-03-19 20:30:28

Stream torrent
Starting‥ You need BitLord! Get it from BitLord.com
To download or stream you need BitLord. Visit them at BitLord.com
 http://www.imdb.com/title/tt1652361/


Format : AVI
Format/Info : Audio Video Interleave
File size : 701 MiB
Duration : 1h 38mn
Overall bit rate : 996 Kbps
Writing library : VirtualDub build 32842/release

Video
ID : 0
Format : MPEG-4 Visual
Format profile : Advanced Simple@L5
Format settings, BVOP : 4
Format settings, QPel : No
Format settings, GMC : No warppoints
Format settings, Matrix : Default (H.263)
Muxing mode : Packed bitstream
Codec ID : XVID
Codec ID/Hint : XviD
Duration : 1h 38mn
Bit rate : 858 Kbps
Width : 640 pixels
Height : 352 pixels
Display aspect ratio : 16:9
Frame rate : 23.976 fps
Color space : YUV
Chroma subsampling : 4:2:0
Bit depth : 8 bits
Scan type : Progressive
Compression mode : Lossy
Bits/(Pixel*Frame) : 0.159
Stream size : 604 MiB (86%)
Writing library : XviD 64

Audio
ID : 1
Format : MPEG Audio
Format version : Version 1
Format profile : Layer 3
Codec ID : 55
Codec ID/Hint : MP3
Duration : 1h 38mn
Bit rate mode : Constant
Bit rate : 128 Kbps
Channel(s) : 2 channels
Sampling rate : 44.1 KHz
Compression mode : Lossy
Stream size : 90.1 MiB (13%)
Alignment : Split accross interleaves
Interleave, duration : 42 ms (1.00 video frame)
Interleave, preload duration : 500 ms
Writing library : LAME3.99r
Encoding settings : -m s -V 4 -q 3 -lowpass 17 -b 128


Plot
A young California surfer has to grow up in a hurry when he is thrown into a Peruvian political prison in 1980.

 
image 
image 
image		
186.dollars.to.freedom.2012.BRRip XViD juggs/186.dollars.to.freedom.2012.BRRip XViD juggs.avi 734.614 MB
186.dollars.to.freedom.2012.BRRip XViD juggs/Torrent Downloaded From ExtraTorrent.com.txt 339 B
186.dollars.to.freedom.2012.BRRip XViD juggs/sample.avi 6.115 MB
Gathering some info...

Register and log in Isohunt and see no captcha anymore!

4000 symbols left
Hash 0e12536dc46f39eb5d71f3ca237261e2df001009

Related torrents for "186.dollars.to.freedom.2012.BRRip XViD juggs"

Torrent search:

2012 bd