Primrose Path (1940) WAC DVDRip BBM

Size 1.376 GB   4 seeders     Added 2013-03-19 23:00:25

Stream torrent
Starting‥ You need BitLord! Get it from BitLord.com
To download or stream you need BitLord. Visit them at BitLord.com
Girl from the "wrong" side of the tracks falls in love with an ambitious young man from the "right" side of the tracks. 

Format : AVI
Format/Info : Audio Video Interleave
File size : 1.28 GiB
Duration : 1h 33mn
Overall bit rate : 1 971 Kbps

Video
ID : 0
Format : MPEG-4 Visual
Format profile : Advanced Simple@L5
Format settings, BVOP : Yes
Format settings, QPel : No
Format settings, GMC : No warppoints
Format settings, Matrix : Custom
Codec ID : XVID
Codec ID/Hint : XviD
Duration : 1h 33mn
Bit rate : 1 838 Kbps
Width : 640 pixels
Height : 480 pixels
Display aspect ratio : 4:3
Frame rate : 23.976 fps
Color space : YUV
Chroma subsampling : 4:2:0
Bit depth : 8 bits
Scan type : Progressive
Bits/(Pixel*Frame) : 0.249
Stream size : 1.19 GiB (93%)
Writing library : XviD 1.2.1 (UTC 2008-12-04)

Audio
ID : 1
Format : MPEG Audio
Format version : Version 1
Format profile : Layer 3
Mode : Joint stereo
Mode extension : MS Stereo
Codec ID : 55
Codec ID/Hint : MP3
Duration : 1h 33mn
Bit rate mode : Constant
Bit rate : 128 Kbps
Channel(s) : 2 channels
Sampling rate : 48.0 KHz
Stream size : 85.2 MiB (6%)
Alignment : Aligned on interleaves
Interleave, duration : 167 ms (4.00 video frames)
Interleave, preload duration : 216 ms
Title : Primrose Path (1940) WAC DVDRip BBM
Writing library : LAME3.98r
Encoding settings : -m j -V 4 -q 2 -lowpass 17 -b 128 		
Primrose Path (1940) WAC DVDRip BBM/Primrose Path (1940) WAC DVDRip BBM.srt 161.068 KB
Primrose Path (1940) WAC DVDRip BBM/Primrose Path (1940) WAC DVDRip BBM.avi 1.375 GB
Gathering some info...

Register and log in Isohunt and see no captcha anymore!

4000 symbols left
Hash b8cee77cfbf5f4fcbd02c552d293bac6fc70c1d0