V For Vendetta 2005 BRRip 720p x264 AAC - PRiSTiNE [P2PDL]

Size 795.956 MB   0 seeders     Added 2013-03-20 07:16:00

Stream torrent
Starting‥ You need BitLord! Get it from BitLord.com
To download or stream you need BitLord. Visit them at BitLord.com
_________________________  Visit us at _________________________
  
http://p2pdl.com  ____________________________  http://p2pdl.com


V For Vendetta 2005 BRRip 720p x264 AAC - PRiSTiNE

Genre: Action | Fantasy | Thriller
Plot: A shadowy freedom fighter known only 
as "V" uses terrorist tactics to fight against 
his totalitarian society. Upon rescuing a girl 
from the secret police, he also finds his best 
chance at having an ally.
Director: James McTeigue
Stars: Hugo Weaving, Natalie Portman, Rupert Graves
Rated: Rated R for strong violence and some language

Info: 
http://www.imdb.com/title/tt0434409/


General
Complete name                  : V For Vendetta 2005 BRRip 720p x264 AAC - PRiSTiNE.mp4
Format                         : MPEG-4
Format profile                 : Base Media
File size                      : 753 MiB
Duration                       : 2h 12mn
Overall bit rate mode          : Variable
Overall bit rate               : 794 Kbps

Source                         : 720p BluRay WiKi (Thanks)

Video
Format                         : AVC
Format/Info                    : Advanced Video Codec
Format profile                 : High@L4.1
Bit rate                       : 707 Kbps
Width                          : 1 280 pixels
Height                         : 528 pixels
Display aspect ratio           : 2.40:1
Frame rate mode                : Constant
Frame rate                     : 23.976 fps
Color space                    : YUV
Chroma subsampling             : 4:2:0
Bit depth                      : 8 bits
Scan type                      : Progressive
Bits/(Pixel*Frame)             : 0.044
Stream size                    : 670 MiB (89%)
Writing library                : x264 core 129 r2245 bc13772

Audio
Format                         : AAC
Format/Info                    : Advanced Audio Codec
Bit rate                       : 83.7 Kbps
Channel(s)                     : 2 channels
Channel positions              : Front: L R
Sampling rate                  : 48.0 KHz / 24.0 KHz
Stream size                    : 79.4 MiB (11%)
Language                       : English

Subtitle                       : Yes (English)

Screens: 
image 
image 
image 
image

----------------------------------------------------------------------------------------------------
Recommend to you to use latest version of VLC player. Install K-Lite Codec Pack or shark007 codecs
in case of any kind of problem in playback (For non-VLC Media Player users). Alternatively, install
Core AVC codecs, the fastest decoder that there is coupled with Community Center Codec Pack and play
on Windows Media Player Classic. Check sample to be sure.
Enjoy!

Encoder Notes: Encoder Notes: Looking For Early Access To Anything You Can Provide DVDScr, R5, DVDR, BluRay, Direct
Audio, Music Releases and Seedboxes. We require dedicated servers, so as to do more and fast releases of movies.
If You Got anything to offer contact us at "prg@hush.com".		
V For Vendetta 2005 BRRip 720p x264 AAC - PRiSTiNE [P2PDL]/V For Vendetta 2005 BRRip 720p x264 AAC - PRiSTiNE/V For Vendetta 2005 BRRip 720p x264 AAC - PRiSTiNE.mp4 789.187 MB
V For Vendetta 2005 BRRip 720p x264 AAC - PRiSTiNE [P2PDL]/Sample.mp4 6.618 MB
V For Vendetta 2005 BRRip 720p x264 AAC - PRiSTiNE [P2PDL]/V For Vendetta 2005 BRRip 720p x264 AAC - PRiSTiNE/V For Vendetta 2005 BRRip 720p x264 AAC - PRiSTiNE.srt 145.796 KB
Gathering some info...

Register and log in Isohunt and see no captcha anymore!

4000 symbols left
Hash 2189a9afdfb10403f65bd399c2318d52c53255ff