imdb
rating

3.3
Dark Feed

Dark Feed (2013)

Horror

Full description
quality   dvdrip x264 hd web-dl dvdr h264

Dark.Feed.720p.WEB-DL.DD5.1.H.264-VoXHD

Size 1.403 GB   0 seeders     Added 2013-03-20 07:15:51

Stream torrent
Starting‥ You need BitLord! Get it from BitLord.com
To download or stream you need BitLord. Visit them at BitLord.com
Video
ID                                       : 1
Format                                   : AVC
Format/Info                              : Advanced Video Codec
Format profile                           : High@L3.1
Format settings, CABAC                   : Yes
Format settings, ReFrames                : 4 frames
Codec ID                                 : V_MPEG4/ISO/AVC
Duration                                 : 1h 25mn
Bit rate                                 : 1 800 Kbps
Width                                    : 1 280 pixels
Height                                   : 720 pixels
Display aspect ratio                     : 16:9
Original display aspect ratio            : 16:9
Frame rate mode                          : Constant
Frame rate                               : 23.976 fps
Color space                              : YUV
Chroma subsampling                       : 4:2:0
Bit depth                                : 8 bits
Scan type                                : Progressive
Bits/(Pixel*Frame)                       : 0.081
Stream size                              : 1.05 GiB (80%)
Writing library                          : x264 core 120


Audio
ID                                       : 2
Format                                   : AC-3
Format/Info                              : Audio Coding 3
Mode extension                           : CM (complete main)
Format settings, Endianness              : Big
Codec ID                                 : A_AC3
Duration                                 : 1h 25mn
Bit rate mode                            : Constant
Bit rate                                 : 384 Kbps
Channel(s)                               : 6 channels
Channel positions                        : Front: L C R, Side: L R, LFE
Sampling rate                            : 48.0 KHz
Bit depth                                : 16 bits
Compression mode                         : Lossy
Stream size                              : 236 MiB (18%)
Language                                 : English
Default                                  : Yes
Forced                                   : No		
Dark.Feed.720p.WEB-DL.DD5.1.H.264-VoXHD/Dark.Feed.720p.WEB-DL.DD5.1.H.264-VoXHD.mkv 1.403 GB
Dark.Feed.720p.WEB-DL.DD5.1.H.264-VoXHD/www.RARBG.com.txt 45 B
Gathering some info...

Register and log in Isohunt and see no captcha anymore!

4000 symbols left
Hash dcd488502c421f5c4b27a06b66cf119292a00728

Related torrents for "Dark.Feed.720p.WEB-DL.DD5.1.H.264-VoXHD"

Torrent search:

hd web-dl