imdb
rating

3.2
Bath Salt Zombies

Bath Salt Zombies (2013)

Horror

Full description

Bath.Salt.Zombies.2013.WEBRip XViD juggs

Size 742.953 MB   0 seeders     Added 2013-03-20 10:30:43

Stream torrent
Starting‥ You need BitLord! Get it from 1BitLord.com
To download or stream you need BitLord. Visit them at BitLord.com
Source : NGB(Thanks)
 
http://www.imdb.com/title/tt2691554/


Format : AVI
Format/Info : Audio Video Interleave
File size : 699 MiB
Duration : 1h 9mn
Overall bit rate : 1 399 Kbps
Writing library : VirtualDub build 32842/release

Video
ID : 0
Format : MPEG-4 Visual
Format profile : Advanced Simple@L5
Format settings, BVOP : 4
Format settings, QPel : No
Format settings, GMC : No warppoints
Format settings, Matrix : Default (H.263)
Muxing mode : Packed bitstream
Codec ID : XVID
Codec ID/Hint : XviD
Duration : 1h 9mn
Bit rate : 1 262 Kbps
Width : 640 pixels
Height : 352 pixels
Display aspect ratio : 16:9
Frame rate : 23.976 fps
Color space : YUV
Chroma subsampling : 4:2:0
Bit depth : 8 bits
Scan type : Progressive
Compression mode : Lossy
Bits/(Pixel*Frame) : 0.234
Stream size : 630 MiB (90%)
Writing library : XviD 64

Audio
ID : 1
Format : MPEG Audio
Format version : Version 1
Format profile : Layer 3
Codec ID : 55
Codec ID/Hint : MP3
Duration : 1h 9mn
Bit rate mode : Constant
Bit rate : 128 Kbps
Channel(s) : 2 channels
Sampling rate : 44.1 KHz
Compression mode : Lossy
Stream size : 63.9 MiB (9%)
Alignment : Split accross interleaves
Interleave, duration : 42 ms (1.00 video frame)
Interleave, preload duration : 500 ms
Writing library : LAME3.99r
Encoding settings : -m s -V 4 -q 3 -lowpass 17 -b 128

Plot
In New York City, potent strands of bath salts have surfaced and have attracted the most devoted bath salt junkies. A young aspiring chemist has developed an even stronger batch... but something has gone horribly wrong.

 
image 
image 
image		
Bath.Salt.Zombies.2013.WEBRip XViD juggs/Bath.Salt.Zombies.2013.WEBRip XViD juggs.avi 732.797 MB
Bath.Salt.Zombies.2013.WEBRip XViD juggs/Torrent Downloaded From ExtraTorrent.com.txt 339 B
Bath.Salt.Zombies.2013.WEBRip XViD juggs/sample.avi 10.156 MB
Gathering some info...

Register and log in Isohunt and see no captcha anymore!

4000 symbols left
Hash 0d2e1318fedeb900b84abfa7ac8e219af6124421

Related torrents for "Bath.Salt.Zombies.2013.WEBRip XViD juggs"

Torrent search:

web-rip 2013