Club Reps

Club Reps (2001)

Celebrities, Interview

Full description

Club.Reps.Season.1.DVDRip.x264-W33D

Size 2.494 GB   0 seeders     Added 2013-03-20 17:23:33

Stream torrent
Starting‥ You need BitLord! Get it from BitLord.com
To download or stream you need BitLord. Visit them at BitLord.com
In series 1 the show is in Faliraki in Rhodes and the series follows a team of Club 18-30 reps. Some of the main people featured in the series include; Resort manager Marie Slater, AKA Maz, Area controller Lee and Club Rep Mark.
Format : MPEG-4
Format profile : Base Media
Codec ID : isom
File size : 222 MiB
Duration : 23mn 15s
Overall bit rate mode : Variable
Overall bit rate : 1 333 Kbps
Encoded date : UTC 2013-03-06 00:39:40
Tagged date : UTC 2013-03-06 00:39:40
Video
ID : 1
Format : AVC
Format/Info : Advanced Video Codec
Format profile : High@L3.1
Format settings, CABAC : Yes
Format settings, ReFrames : 4 frames
Codec ID : avc1
Codec ID/Info : Advanced Video Coding
Duration : 23mn 15s
Bit rate : 1 137 Kbps
Maximum bit rate : 4 000 Kbps
Width : 688 pixels
Height : 384 pixels
Display aspect ratio : 16:9
Frame rate mode : Constant
Frame rate : 25.000 fps
Color space : YUV
Chroma subsampling : 4:2:0
Bit depth : 8 bits
Scan type : Progressive
Bits/(Pixel*Frame) : 0.172
Stream size : 189 MiB (85%)
Writing library : x264 core 129 r2245 bc13772
Encoding settings : cabac=1 / ref=3 / deblock=1:0:0 / analyse=0x3:0x113 / me=hex / subme=7 / psy=1 / psy_rd=1.00:0.00 / mixed_ref=1 / me_range=16 / chroma_me=1 / trellis=1 / 8x8dct=1 / cqm=0 / deadzone=21,11 / fast_pskip=1 / chroma_qp_offset=-2 / threads=3 / lookahead_threads=1 / sliced_threads=0 / nr=0 / decimate=1 / interlaced=0 / bluray_compat=0 / constrained_intra=0 / bframes=3 / b_pyramid=2 / b_adapt=1 / b_bias=0 / direct=1 / weightb=1 / open_gop=0 / weightp=2 / keyint=250 / keyint_min=25 / scenecut=40 / intra_refresh=0 / rc_lookahead=40 / rc=crf / mbtree=1 / crf=23.0 / qcomp=0.60 / qpmin=0 / qpmax=69 / qpstep=5 / ip_ratio=1.40 / aq=1:1.00
Encoded date : UTC 2013-03-06 00:02:11
Tagged date : UTC 2013-03-06 00:39:47
Audio
ID : 2
Format : AAC
Format/Info : Advanced Audio Codec
Format profile : LC
Codec ID : 40
Duration : 23mn 15s
Bit rate mode : Variable
Bit rate : 192 Kbps
Maximum bit rate : 208 Kbps
Channel(s) : 2 channels
Channel positions : Front: L R
Sampling rate : 48.0 KHz
Compression mode : Lossy
Delay relative to video : 80ms
Stream size : 32.0 MiB (14%)
Encoded date : UTC 2013-03-06 00:33:14
Tagged date : UTC 2013-03-06 00:39:47		
Club.Reps.Season.1.DVDRip.x264-W33D/Club.Reps.S01E09.DVDRip.x264-W33D.mp4 269.935 MB
Club.Reps.Season.1.DVDRip.x264-W33D/Club.Reps.S01E02.DVDRip.x264-W33D.mp4 245.584 MB
Club.Reps.Season.1.DVDRip.x264-W33D/Club.Reps.S01E04.DVDRip.x264-W33D.mp4 239.058 MB
Gathering some info...

Register and log in Isohunt and see no captcha anymore!

4000 symbols left
Hash 1f4e33d61f3b95db13a15396f0dad104b064fec8