imdb
rating

3.7
The Wicked

The Wicked (2013)

Fantasy, Horror, Thriller

Full description
quality   dvdrip dvdr x264 hd bd h264

{www.scenetime.com}The Wicked 2013 DVDRip XviD juggs Verified

Size 742.019 MB   0 seeders     Added 2013-03-21 08:00:30

Stream torrent
Starting‥ You need BitLord! Get it from BitLord.com
To download or stream you need BitLord. Visit them at BitLord.com
 image

Source VDR iNVANDRAREN (Thanks)
 
http://www.imdb.com/title/tt1986994/

Format                                   : AVI
Format/Info                              : Audio Video Interleave
File size                                : 700 MiB
Duration                                 : 1h 40mn
Overall bit rate                         : 973 Kbps
Writing library                          : VirtualDub build 32842/release

Video
ID                                       : 0
Format                                   : MPEG-4 Visual
Format profile                           : Advanced Simple@L5
Format settings, BVOP                    : 4
Format settings, QPel                    : No
Format settings, GMC                     : No warppoints
Format settings, Matrix                  : Default (H.263)
Muxing mode                              : Packed bitstream
Codec ID                                 : XVID
Codec ID/Hint                            : XviD
Duration                                 : 1h 40mn
Bit rate                                 : 835 Kbps
Width                                    : 640 pixels
Height                                   : 352 pixels
Display aspect ratio                     : 16:9
Frame rate                               : 25.000 fps
Color space                              : YUV
Chroma subsampling                       : 4:2:0
Bit depth                                : 8 bits
Scan type                                : Progressive
Compression mode                         : Lossy
Bits/(Pixel*Frame)                       : 0.148
Stream size                              : 601 MiB (86%)
Writing library                          : XviD 64

Audio
ID                                       : 1
Format                                   : MPEG Audio
Format version                           : Version 1
Format profile                           : Layer 3
Mode                                     : Joint stereo
Mode extension                           : MS Stereo
Codec ID                                 : 55
Codec ID/Hint                            : MP3
Duration                                 : 1h 40mn
Bit rate mode                            : Constant
Bit rate                                 : 128 Kbps
Channel(s)                               : 2 channels
Sampling rate                            : 44.1 KHz
Compression mode                         : Lossy
Stream size                              : 92.1 MiB (13%)
Alignment                                : Split accross interleaves
Interleave, duration                     : 40 ms (1.00 video frame)
Interleave, preload duration             : 500 ms
Writing library                          : LAME3.98

SCREENS
 
image 
image 
image


*************************************************************************************

Love for All and Sharing is the first step to solving all the problems of humanity.

Website I want to share.
             

 scenetime,com

- Latest Releases
- Super Fast Speeds
- Good Community
- Competitions with prizes (yay)
- Love for the Scene


 Credit to EVERYONE for sharing and seeding back
especially to SceneTime where i get all my
downloads.

For more info about this release, open .NFO file with notepad !!!
support scenetime to grow faster.

*************************************************************************************		
{www.scenetime.com}The Wicked 2013 DVDRip XviD juggs/sample.avi 7.631 MB
{www.scenetime.com}The Wicked 2013 DVDRip XviD juggs/Torrent have been downloaded from Scenetime.com.txt 195 B
{www.scenetime.com}The Wicked 2013 DVDRip XviD juggs/The Wicked 2013 DVDRip XviD juggs.avi 734.387 MB
Gathering some info...

Register and log in Isohunt and see no captcha anymore!

4000 symbols left
Hash 5d56b61438c15ca3ebacbd739cc4e81880e83345

Related torrents for "{www.scenetime.com}The Wicked 2013 DVDRip XviD juggs"

Torrent search:

dvdrip 2013