imdb
rating

5.1
186 Dollars to Freedom

186 Dollars to Freedom (2012)

Action, Drama

Full description
quality   x264 hd bd dvdrip dvdr fullhd

[ www.Speed.Cd ] - 186.Dollars.To.Freedom.2012.DVDRip.XviD-playXD

Size 749.833 MB   0 seeders     Added 2013-03-21 12:16:14

Stream torrent
Starting‥ You need BitLord! Get it from BitLord.com
To download or stream you need BitLord. Visit them at BitLord.com
-

      the fast  and The Hottest Private Tracker on the net

Please Seed back to make the speed Faster!!
 ............ NFO .............
-General
Complete name                    : F:186.Dollars.To.Freedom.2012.DVDRip.XviD-playXD186.Dollars.To.Freedom.2012.DVDRip.XviD-playXD.avi
Format                           : AVI
Format/Info                      : Audio Video Interleave
File size                        : 704 MiB
Duration                         : 1h 34mn
Overall bit rate                 : 1 043 Kbps
Writing application              : VirtualDubMod 1.5.10.2 (build 2540/release)
Writing library                  : VirtualDubMod build 2540/release

Video
ID                               : 0
Format                           : MPEG-4 Visual
Format profile                   : Advanced Simple@L5
Format settings, BVOP            : Yes
Format settings, QPel            : Yes
Format settings, GMC             : No warppoints
Format settings, Matrix          : Default (H.263)
Codec ID                         : XVID
Codec ID/Hint                    : XviD
Duration                         : 1h 34mn
Bit rate                         : 906 Kbps
Width                            : 640 pixels
Height                           : 352 pixels
Display aspect ratio             : 16:9
Frame rate                       : 25.000 fps
Color space                      : YUV
Chroma subsampling               : 4:2:0
Bit depth                        : 8 bits
Scan type                        : Progressive
Bits/(Pixel*Frame)               : 0.161
Stream size                      : 611 MiB (87%)
Writing library                  : XviD 1.2.1 (UTC 2008-12-04)

Audio
ID                               : 1
Format                           : MPEG Audio
Format version                   : Version 1
Format profile                   : Layer 3
Mode                             : Joint stereo
Mode extension                   : MS Stereo
Codec ID                         : 55
Codec ID/Hint                    : MP3
Duration                         : 1h 34mn
Bit rate mode                    : Constant
Bit rate                         : 128 Kbps
Channel(s)                       : 2 channels
Sampling rate                    : 48.0 KHz
Stream size                      : 86.4 MiB (12%)
Alignment                        : Aligned on interleaves
Interleave, duration             : 40 ms (1.00 video frame)
Interleave, preload duration     : 504 ms
Writing library                  : LAME3.99r
Encoding settings                : -m j -V 4 -q 2 -lowpass 17 -b 128		
[ www.Speed.Cd ] - 186.Dollars.To.Freedom.2012.DVDRip.XviD-playXD/186.Dollars.To.Freedom.2012.DVDRip.XviD-playXD.avi 738.31 MB
[ www.Speed.Cd ] - 186.Dollars.To.Freedom.2012.DVDRip.XviD-playXD/playXD.nfo 4.924 KB
[ www.Speed.Cd ] - 186.Dollars.To.Freedom.2012.DVDRip.XviD-playXD/SAMPLE/SAMPLE.avi 11.518 MB
Gathering some info...

Register and log in Isohunt and see no captcha anymore!

4000 symbols left
Hash 4f121e3352a7d4d41de1983dd2cae56655f7adee

Related torrents for "[ www.Speed.Cd ] - 186.Dollars.To.Freedom.2012.DVDRip.XviD-playXD"

Torrent search:

dvdrip 2012