imdb
rating

7.5
To Catch a Thief

To Catch a Thief (1955)

Crime, Drama, Mystery, Romance, Suspense, Thriller

Full description

To Catch A Thief [1955] 720p BRRip H264 AC3 - CODY

Size 2.083 GB   0 seeders     Added 2013-03-21 19:00:12

Stream torrent
Starting‥ You need BitLord! Get it from 1BitLord.com
To download or stream you need BitLord. Visit them at BitLord.com
General
Complete name                            : To Catch A Thief [1955] 720p BRRip H264 AC3 - CODY.mp4
Format                                   : MPEG-4
Format profile                           : Base Media
Codec ID                                 : isom
File size                                : 1.94 GiB
Duration                                 : 1h 46mn
Overall bit rate mode                    : Variable
Overall bit rate                         : 2 607 Kbps
Encoded date                             : UTC 2012-10-01 17:27:55

Video
ID                                       : 1
Format                                   : AVC
Format/Info                              : Advanced Video Codec
Format profile                           : High@L4.1
Format settings, CABAC                   : Yes
Format settings, ReFrames                : 5 frames
Codec ID                                 : avc1
Codec ID/Info                            : Advanced Video Coding
Duration                                 : 1h 46mn
Bit rate mode                            : Variable
Bit rate                                 : 2 220 Kbps
Maximum bit rate                         : 20.0 Mbps
Width                                    : 1 280 pixels
Height                                   : 720 pixels
Display aspect ratio                     : 16:9
Frame rate mode                          : Constant
Frame rate                               : 23.976 fps
Color space                              : YUV
Chroma subsampling                       : 4:2:0
Bit depth                                : 8 bits
Scan type                                : Progressive
Bits/(Pixel*Frame)                       : 0.100
Stream size                              : 1.65 GiB (85%)
Writing library                          : x264 core 125 r2200 999b753
Encoding settings                        : rc=2pass
Color primaries                          : Generic film

Audio
ID                                       : 2
Format                                   : AC-3
Format/Info                              : Audio Coding 3
Mode extension                           : CM (complete main)
Codec ID                                 : ac-3
Duration                                 : 1h 46mn
Bit rate mode                            : Constant
Bit rate                                 : 384 Kbps
Channel(s)                               : 2 channels
Channel positions                        : Front: L R
Sampling rate                            : 48.0 KHz
Bit depth                                : 16 bits
Compression mode                         : Lossy
Stream size                              : 293 MiB (15%)
Encoded date                             : UTC 2012-10-01 17:28:18

Audio language                           : English

IMDB link:                                 http://www.imdb.com/title/tt0048728/

Subtitles included                       : English, Romanian

Please seed at least 1,5:1 . This way this torrent has a chance to survive !

Thanks . Enjoy !! 		
To Catch A Thief [1955] 720p BRRip H264 AC3 - CODY/Cover.jpg 218.729 KB
To Catch A Thief [1955] 720p BRRip H264 AC3 - CODY/Info_by_Cody.txt 7.626 KB
To Catch A Thief [1955] 720p BRRip H264 AC3 - CODY/To Catch A Thief [1955] 720p BRRip H264 AC3 - CODY.English-for-hearing-impaired.srt 101.261 KB
Gathering some info...

Register and log in Isohunt and see no captcha anymore!

4000 symbols left
Hash 4239aca05ec950dd739726f1187582710e07e3d6

Related torrents for "To Catch A Thief [1955] 720p BRRip H264 AC3 - CODY"

Torrent search:

h264 1955 hd bd